(Eurodance, Euro House) [CD] Good Shape - Closer To You - 1995, FLAC (image+.cue), lossless


Статистика роздачі [Оновити пиров]
Розмір:  395 MB   |    Зареєстрований:  2 місяця 8 днів   |    Скачано:  0 раз

Повного джерела не було: Ніколи

by Паночка ®
12-Січ-2019 19:10


(Eurodance, Euro House) [CD] Good Shape - Closer To You - 1995, FLAC (image+.cue), lossless

Good Shape / Closer To You
Жанр: Eurodance, Euro House
Носитель: CD
Страна-производитель диска (релиза): Netherlands
Год издания: 1995
Издатель (лейбл): Dino Music
Номер по каталогу: DNCD 1471
Страна исполнителя (группы): Belgium
Аудиокодек: FLAC (*.flac)
Тип рипа: image+.cue
Битрейт аудио: lossless
Источник (релизер): Собственный рип/собствнная коллекция
Наличие сканов в содержимом раздачи: да
Треклист:
1) Introspective 2:45
2) Come To Me 3:12
3) Stay The Night 3:36
4) Never Gonna Give Up My Love For You 3:12
5) Get Out Of My Way 3:52
6)Sing Like The Children 3:24
7) The World Is Changing 3:01
8) Come Closer 3:32
9) Don't Run Away 3:07
10) Celebration 3:29
11) Can't Get Enough Of You 3:49
12) Believe In You And Me 3:18
13) I Can Love You 3:27
14) Сome To Me (In Heaven) 3:14
15) How Are You 4:12
16) I Will (Go To Germany) 3:39
17) Take My Love (Our Love '96) 3:24

Лог создания рипа

Exact Audio Copy V1.3 from 2. September 2016
Отчёт EAC об извлечении, выполненном 12. января 2019, 13:29
Good Shape / Closer To You
Дисковод: HL-DT-STDVDRAM GT32N Adapter: 1 ID: 0
Режим чтения : ДостоверностьИспользование точного потока : ДаОтключение кэша аудио : ДаИспользование указателей C2 : Нет
Коррекция смещения при чтении : 103Способность читать области Lead-in и Lead-out : НетЗаполнение пропущенных сэмплов тишиной : ДаУдаление блоков с тишиной в начале и конце : НетПри вычислениях CRC использовались нулевые сэмплы : ДаИнтерфейс : Встроенный Win32-интерфейс для Win NT/2000
Выходной формат : Пользовательский кодировщикВыбранный битрейт : 896 kBit/sКачество : ВысокийДобавление ID3-тега : НетУтилита сжатия : C:\Program Files (x86)\Exact Audio Copy\flac-1.3.1-win\win64\flac.exeДополнительные параметры : -8 -V -T "ARTIST=%artist%" -T "TITLE=%title%" -T "ALBUM=%albumtitle%" -T "DATE=%year%" -T "TRACKNUMBER=%tracknr%/%numtracks%" -T "GENRE=%genre%" -T "COMMENT=%comment%" %source% -o %dest%
TOC извлечённого CD
Трек | Старт | Длительность | Начальный сектор | Конечный сектор --------------------------------------------------------------------- 1 | 0:00.00 | 2:44.00 | 0 | 12299 2 | 2:44.00 | 3:12.22 | 12300 | 26721 3 | 5:56.22 | 3:35.70 | 26722 | 42916 4 | 9:32.17 | 3:14.50 | 42917 | 57516 5 | 12:46.67 | 3:50.30 | 57517 | 74796 6 | 16:37.22 | 3:27.20 | 74797 | 90341 7 | 20:04.42 | 2:58.63 | 90342 | 103754 8 | 23:03.30 | 3:34.27 | 103755 | 119831 9 | 26:37.57 | 3:05.65 | 119832 | 133771 10 | 29:43.47 | 3:29.33 | 133772 | 149479 11 | 33:13.05 | 3:51.25 | 149480 | 166829 12 | 37:04.30 | 3:16.07 | 166830 | 181536 13 | 40:20.37 | 3:28.60 | 181537 | 197196 14 | 43:49.22 | 3:13.30 | 197197 | 211701 15 | 47:02.52 | 4:12.20 | 211702 | 230621 16 | 51:14.72 | 3:39.63 | 230622 | 247109 17 | 54:54.60 | 3:25.07 | 247110 | 262491
Характеристики диапазона извлечения и сообщения об ошибках
Выбранный диапазон
Имя файла E:\Music\Rutracker\My torrents\Good Shape - Closer To You (1995) FLAC\Good Shape - Closer To You.wav
Пиковый уровень 99.9 % Скорость извлечения 2.2 X Качество диапазона 100.0 % CRC теста A1A5F97E CRC копии A1A5F97E Копирование... OK
Ошибок не произошло
AccurateRip: сводка
Трек 1 отсутствует в базе данныхТрек 2 отсутствует в базе данныхТрек 3 отсутствует в базе данныхТрек 4 отсутствует в базе данныхТрек 5 отсутствует в базе данныхТрек 6 отсутствует в базе данныхТрек 7 отсутствует в базе данныхТрек 8 отсутствует в базе данныхТрек 9 отсутствует в базе данныхТрек 10 отсутствует в базе данныхТрек 11 отсутствует в базе данныхТрек 12 отсутствует в базе данныхТрек 13 отсутствует в базе данныхТрек 14 отсутствует в базе данныхТрек 15 отсутствует в базе данныхТрек 16 отсутствует в базе данныхТрек 17 отсутствует в базе данных
Ни одного трека нет в базе AccurateRip
Конец отчёта
---- CUETools DB Plugin V2.1.6
[CTDB TOCID: D90owqp7C4Tc1AHlgpg0JO7SUfo-] foundSubmit result: already submittedTrack | CTDB Status 1 | (2/2) Accurately ripped 2 | (2/2) Accurately ripped 3 | (2/2) Accurately ripped 4 | (2/2) Accurately ripped 5 | (2/2) Accurately ripped 6 | (2/2) Accurately ripped 7 | (2/2) Accurately ripped 8 | (2/2) Accurately ripped 9 | (2/2) Accurately ripped 10 | (2/2) Accurately ripped 11 | (2/2) Accurately ripped 12 | (2/2) Accurately ripped 13 | (2/2) Accurately ripped 14 | (2/2) Accurately ripped 15 | (2/2) Accurately ripped 16 | (2/2) Accurately ripped 17 | (2/2) Accurately ripped
==== Контрольная сумма отчёта 4317074D36EC933853EEDD1C5185216B9B4FE6604A30AE72D19C06642CB6890F ====

Содержание индексной карты (.CUE)

REM DATE 1995REM DISCID 150DAB11REM COMMENT "ExactAudioCopy v1.3"PERFORMER "Good Shape"TITLE "Closer To You"REM COMPOSER ""FILE "Good Shape - Closer To You.flac" WAVE  TRACK 01 AUDIO    TITLE "Introspective"    PERFORMER "Good Shape"    REM COMPOSER ""    INDEX 01 00:00:00  TRACK 02 AUDIO    TITLE "Come To Me"    PERFORMER "Good Shape"    REM COMPOSER ""    INDEX 01 02:44:00  TRACK 03 AUDIO    TITLE "Stay The Night"    PERFORMER "Good Shape"    REM COMPOSER ""    INDEX 01 05:56:22  TRACK 04 AUDIO    TITLE "Never Gonna Give Up My Love For You"    PERFORMER "Good Shape"    REM COMPOSER ""    INDEX 01 09:32:17  TRACK 05 AUDIO    TITLE "Get Out Of My Way"    PERFORMER "Good Shape"    REM COMPOSER ""    INDEX 00 12:46:65    INDEX 01 12:46:67  TRACK 06 AUDIO    TITLE "Sing Like The Children"    PERFORMER "Good Shape"    REM COMPOSER ""    INDEX 01 16:37:22  TRACK 07 AUDIO    TITLE "The World Is Changing"    PERFORMER "Good Shape"    REM COMPOSER ""    INDEX 00 20:02:00    INDEX 01 20:04:42  TRACK 08 AUDIO    TITLE "Come Closer"    PERFORMER "Good Shape"    REM COMPOSER ""    INDEX 01 23:03:30  TRACK 09 AUDIO    TITLE "Don't Run Away"    PERFORMER "Good Shape"    REM COMPOSER ""    INDEX 00 26:35:50    INDEX 01 26:37:57  TRACK 10 AUDIO    TITLE "Celebration"    PERFORMER "Good Shape"    REM COMPOSER ""    INDEX 01 29:43:47  TRACK 11 AUDIO    TITLE "Can't Get Enough Of You"    PERFORMER "Good Shape"    REM COMPOSER ""    INDEX 01 33:13:05  TRACK 12 AUDIO    TITLE "Believe In You And Me"    PERFORMER "Good Shape"    REM COMPOSER ""    INDEX 00 37:02:50    INDEX 01 37:04:30  TRACK 13 AUDIO    TITLE "I Can Love You"    PERFORMER "Good Shape"    REM COMPOSER ""    INDEX 01 40:20:37  TRACK 14 AUDIO    TITLE "Come To Me (In Heaven)"    PERFORMER "Good Shape"    REM COMPOSER ""    INDEX 00 43:47:67    INDEX 01 43:49:22  TRACK 15 AUDIO    TITLE "How Are You"    PERFORMER "Good Shape"    REM COMPOSER ""    INDEX 01 47:02:52  TRACK 16 AUDIO    TITLE "I Will (Go To Germany)"    PERFORMER "Good Shape"    REM COMPOSER ""    INDEX 01 51:14:72  TRACK 17 AUDIO    TITLE "Take My Love (Our Love '96)"    PERFORMER "Good Shape"    REM COMPOSER ""    INDEX 01 54:54:60
Доп. информация: Второй альбом этого бельгийского коллектива.

Об альбоме (сборнике)

Credits:
Producer, Arranged By – Koen De Beir
Written By – G. Robinson (tracks: 3, 9)
Written-By – A. Larson (tracks: 2, 3, 8, 9), D. Cantré* (tracks: 6 to 9, 11 to 13), F. Vervaeke* (tracks: 4, 8, 10, 16), K. De Beir* (tracks: 1 to 7, 9 to 13, 16, 17)

Состав

David Cantré, Filip Vervaeke, Geert De Meyer, Koen De Beir



Ви не можете починати теми
Ви не можете відповідати на повідомлення
Ви не можете редагувати свої повідомлення
Ви не можете видаляти свої повідомлення
Ви не можете голосувати в опитуваннях
Ви не можете прикріплювати файли до повідомлень
Ви можете скачувати файли