Легенды Ретро FM лучшее (Санкт-Петербург 02.01.2019) [2019, Pop, DVB]


Статистика роздачі [Оновити пиров]
Розмір:  12,53 GB   |    Зареєстрований:  2 місяця 9 днів   |    Скачано:  0 раз

Повного джерела не було: Ніколи


Легенды Ретро FM лучшее (Санкт-Петербург 02.01.2019) [2019, Pop, DVB]

Легенды Ретро FM лучшее (Санкт-Петербург 02.01.2019)
Страна: Россия
Жанр: Pop
Продолжительность: 04:39:59
Год выпуска: 2019
Описание: С Новым годом вас поздравят культовые коллективы и исполнители ушедшей эпохи: OTTAWAN, BAD BOYS BLUE, Ricchi E Poveri, Samantha Fox, Bony M, BACCARA, C.C. CATCH, SANDRA и многие, многие другие.
Только для вас, в праздничном шоу, любимые многими поколениями вокально-инструментальные ансамбли «Верасы» со своей незабываемой «Малиновкой», «Поющие гитары» с хитами «Синяя птица» и «Люди встречаются», артисты Вадим Казаченко, Игорь Корнелюк, Валерий Леонтьев, Наталья Гулькина, Таня Буланова…
Ночь будет полна приятных сюрпризов!
Доп. информация: Запись со спутника с 5 телеканала Санкт Петербург
Источник: собственная запись
Качество: DVB
Контейнер: TS
Видео кодек: H.264
Аудио кодек: MP2
Видео: AVC/H.264, 720x576 (16:9), 25.00fps, 5894 Kbps
Аудио: Mp2, 48000Hz, 2ch, 192 Kbps

Треклист

01. Юрий Антонов-Я вспоминаю
02. E-TYPE-Russian Lullaby5
03. Юрий Шатунов-Белые розы
04. Ottavan-Hads Up
05. Олег Газманов-Белый снег
06. Наталья Гулькина-Дискотека
07. Bad boys Blue-You`re a Woman
08. Ирина Аллегрова-Угонщица
09. Игорь Николаев-Незнакомка
10. Ottavan-D.I.S.C.O.
11. Юрий Антонов-Если любишь ты
12. Sandra-In the heat of the night
13. Юрий Шатунов-Седая ночь
14. Samanta Fox-Touch me (i want your body)
15. Riccardo Fogli и Вадим казаченко-Storie di tutti giorni
16. Олег Газманов-Морячка
17. E-TYPE-Angels Crying
18. Ricchi e Poveri-Mamma Maria
19. Юрий Антонов-Дорога к морю
20. Bad boys Blue-Come back and stay5
21. Марина Хлебникова-Дожди
22. Игорь Николаев-Комарово
23. Sandra-Maria Magdalena
24. Верасы-Малиновка
25. Юрий Шатунов-Глупые снежинки
26. Baccara-Sorry,I`M a Lady
27. Bad boys Blue-Pretty young girl
28. Вадим Казаченко-Прощай навеки,последняя любовь
29. Baccara-Yes,sir,i can boogie
30. Bone M-Rasputin
31. Игорь Николаев-Выпьем за любовь
32. Sandra-Secret Land
33. Bad boys Blue-I wanna hear your heartbeat
34. E-TYPE-Here i go again
35. Юрий Шатунов-Лето
36. Валерий Леонтьев-Зелёный свет
37. Анне Веске-Позади крутой поворот
38. Dschinghis Han-Moskau
39. Олег Газманов-Эскадрон
40. Лада Денс-Один лишь раз сады цветут
41. Ricchi e Poveri-Acapulco
42. Поющие гитары-Синяя песня
43. Jou-Touch by Touch
44. Андрей Державин-Не плач, Алиса
45. Afric Simone-Hafanana
46. Ирина Аллегрова-Свадебные цветы
47. Валерий Леонтьев-Полёт на дельтаплане
48. C.C.Catch-Soul Survivor
49. Вадим Казаченко-Ах,какая женщина
50. Fancy-Flames of Love
51. Анне Веске-Кто тебе сказал
52. Виктор Салтыков-Кони в яблоках
53. Dr.Alban-IT`S MY LIFE
54. Олег Газманов-Единственная
55. Лада Денс-Регги в ночи
56. Jou-Valerie
57. Валерий Леонтьев-Кабаре
58. Pupo-Gelato al Cioccolato
59. Вадим Казаченко-На летящем коне
60. Afric Simone-Todo pasara,Maria
61. Поющие гитары-Люди встречаются
62. Dschinghis Han-Dschinghis Han
63. Андрей Державин-Чужая свадьба
64. Ирина Аллегрова-Привет,Андрей!
65. Pupo-Burattino telecomandato
66. Лада Денс-Аромат любви
67. Ricchi e Poveri-Sara Perche ti amo
68. Валерий Леонтьев-Бездомная любовь
69. Samanta Fox-Nothing`s Gonna stop me now
70. Вадим Казаченко-Больно мне,больно
71. Pupo-Su di noi
72. Лада Денс-Девочка-ночь

MediaInfo

Общее
Идентификатор : 1 (0x1)
Полное имя : D:\Легенды Ретро FM лучшее (Санкт-Петербург 02.01.2019).ts
Формат : MPEG-TS
Размер файла : 12,5 Гбайт
Продолжительность : 4 ч. 39 м.
Режим общего битрейта : Переменный
Общий поток : 6404 Кбит/сек
Видео
Идентификатор : 2261 (0x8D5)
Идентификатор меню : 1 (0x1)
Формат : AVC
Формат/Информация : Advanced Video Codec
Профиль формата : [email protected]
Настройки формата : CABAC / 4 Ref Frames
Параметр CABAC формата : Да
Параметр RefFrames формата : 4 кадра
Идентификатор кодека : 27
Продолжительность : 4 ч. 39 м.
Битрейт : 5894 Кбит/сек
Ширина : 720 пикселей
Высота : 576 пикселей
Соотношение сторон : 16:9
Частота кадров : 25,000 кадров/сек
Стандарт вещания : Component
Цветовое пространство : YUV
Субдискретизация насыщенности : 4:2:0
Битовая глубина : 8 бит
Тип развёртки : Чересстрочная
Метод сохранения типа развёртки : Раздельные поля
Порядок развёртки : Верхнее поле первое
Бит/(Пиксели*Кадры) : 0.568
Размер потока : 11,5 Гбайт (92%)
Цветовой диапазон : Limited
Основные цвета : BT.601 PAL
Характеристики трансфера : BT.470 System B, BT.470 System G
Коэффициенты матрицы : BT.470 System B, BT.470 System G
Аудио
Идентификатор : 2262 (0x8D6)
Идентификатор меню : 1 (0x1)
Формат : MPEG Audio
Версия формата : Version 1
Профиль формата : Layer 2
Идентификатор кодека : 3
Продолжительность : 4 ч. 39 м.
Вид битрейта : Постоянный
Битрейт : 192 Кбит/сек
Каналы : 2 канала
Частота : 48,0 КГц
Частота кадров : 41,667 кадра/сек (1152 SPF)
Метод сжатия : С потерями
Размер потока : 385 Мбайт (3%)
Язык : Russian

Скриншоты




Ви не можете починати теми
Ви не можете відповідати на повідомлення
Ви не можете редагувати свої повідомлення
Ви не можете видаляти свої повідомлення
Ви не можете голосувати в опитуваннях
Ви не можете прикріплювати файли до повідомлень
Ви можете скачувати файли