John Escreet Trio (John Hebert, Tyshawn Sorey) - London Jazz Festival 2014 [2014, Avant-Garde Jazz, HDTV 1080i]


Статистика роздачі [Оновити пиров]
Розмір:  2,28 GB   |    Зареєстрований:  2 місяця 9 днів   |    Скачано:  0 раз

Повного джерела не було: Ніколи


John Escreet Trio (John Hebert, Tyshawn Sorey) - London Jazz Festival 2014 [2014, Avant-Garde Jazz, HDTV 1080i]

John Escreet Trio
London Jazz Festival 2014

-
Жанр: Avant-Garde Jazz
Продолжительность: 00:57:37
Год выпуска: 2014
Musicians:
John Escreet - piano
John Hébert - double bass
Tyshawn Sorey - drums and vibes
Track List:
... исполняется непонятное количество композиций ...
... информация об их названиях в самом релизе – не указана ...
Доп. информация:
Recorded November 9th 2014 as part of the London Jazz Festival at the BIMHUIS in Amsterdam
John Escreet Official Site
John Hébert Official Site
Tyshawn Sorey Official Site
Огромная Благодарность - ssegaster - за предоставленный материал ...
Спасибо большое !!!
Качество: HDTV
Разрешение видео/развертка: 1080i
Контейнер: TS
Видео кодек: H.264
Аудио кодек: MPEG
Видео: 5 136 Kbps, 1920*1080 (16:9), at 25.000 fps, AVC (Component) ([email protected]) (CABAC / 4 Ref Frames)
Аудио: Russian, 256 Kbps, 48.0 KHz, 2 channels, MPEG Audio (Version 1) (Layer 2)

Отчёт MediaInfo

GeneralID                                       : 1 (0x1)Complete name                            : C:\rutracker.org_mezzo live HD\mezzo live HD_John Escreet Trio - London Jazz Festival 2014.tsFormat                                   : MPEG-TSFile size                                : 2.28 GiBDuration                                 : 57mn 37sOverall bit rate mode                    : VariableOverall bit rate                         : 5 675 Kbps
VideoID : 203 (0xCB)Menu ID : 20103 (0x4E87)Format : AVCFormat/Info : Advanced Video CodecFormat profile : [email protected] settings, CABAC : YesFormat settings, ReFrames : 4 framesFormat settings, GOP : M=4, N=28Codec ID : 27Duration : 57mn 37sBit rate : 5 136 KbpsWidth : 1 920 pixelsHeight : 1 080 pixelsDisplay aspect ratio : 16:9Frame rate : 25.000 fpsStandard : ComponentColor space : YUVChroma subsampling : 4:2:0Bit depth : 8 bitsScan type : InterlacedScan order : Top Field FirstBits/(Pixel*Frame) : 0.099Stream size : 2.07 GiB (91%)Color primaries : BT.709Transfer characteristics : BT.709Matrix coefficients : BT.709
AudioID : 303 (0x12F)Menu ID : 20103 (0x4E87)Format : MPEG AudioFormat version : Version 1Format profile : Layer 2Codec ID : 3Duration : 57mn 37sBit rate mode : ConstantBit rate : 256 KbpsChannel(s) : 2 channelsSampling rate : 48.0 KHzCompression mode : LossyStream size : 106 MiB (5%)Language : Russian

Скриншоты




Ви не можете починати теми
Ви не можете відповідати на повідомлення
Ви не можете редагувати свої повідомлення
Ви не можете видаляти свої повідомлення
Ви не можете голосувати в опитуваннях
Ви не можете прикріплювати файли до повідомлень
Ви можете скачувати файли