[SACD-R][OF] Pergolesi: Stabat Mater, Flute Concerto in G major, Sinfonia in F major for Cello and Cont (Florilegium, Robin Blaze, Elin Manahan) - 2010 (Classical/Vocal/Chamber)


Статистика роздачі [Оновити пиров]
Розмір:  3,76 GB   |    Зареєстрований:  1 рік   |    Скачано:  0 раз

Повного джерела не було: Ніколи

by Козак ®
09-Бер-2018 20:15


[SACD-R][OF] Pergolesi: Stabat Mater, Flute Concerto in G major, Sinfonia in F major for Cello and Cont (Florilegium, Robin Blaze, Elin Manahan) - 2010 (Classical/Vocal/Chamber)

Florilegium, Robin Blaze, Elin Manahan
Pergolesi: Stabat Mater, Flute Concerto in G major, Sinfonia in F major for Cello and Cont
- Формат записи/Источник записи: [SACD-R][OF]
Наличие водяных знаков: Нет
Год издания/переиздания диска: 2010
Жанр: Classical/Vocal/Chamber
Издатель (лейбл): Channel Classics Records
Продолжительность: 01:12:35
Наличие сканов в содержимом раздачи: Буклет PDF-Контейнер: ISO (*.iso)
Тип рипа: image
Разрядность: 64(2,8 MHz/1 Bit)
Формат: DST64
Количество каналов: 5.0, 2.0
http://sa-cd.net/showtitle/6448
https://www.amazon.co.uk/Pergolesi-Stabat-Mater-Hybrid-Players/dp/B003ELZKBG
Источник (релизер): WEB
Композитор: Giovanni Battista Pergolesi
Исполнитель: Florilegium
Robin Blaze (counter tenor)
Elin Manahan Thomas (soprano)
Ashley Solomon (flute)
Jennifer Morsches (cello)-FLAC 2.0 24/96 на трекере
Доп. информация:
Channel Classics Records, CCS SA 29810
Recording type - DSD

Треклист

Stabat Mater
01] Stabat Mater
02] Cujus animam gementem
03] O quam tristis
04] Quae moerebat et dolebat
05] Quis est homo
06] Vidit suum dulcem Natum
07] Eja Mater
08] Fac ut ardeat cor meum
09] Sancta Mater
10] Fac ut portem
11] Inflammatus et accensus
12] Quando corpus-Amen
Flute Concerto in G major
13] Spiritoso
14] Largo
15] Allegro Spiritoso
Sinfonia in F major for cello and continuo
16] Comodo
17] Allegro
18] Adagio
19] Presto
Salve Regina in F minor
20] Salve Regina
21] Ad te clamamus
22] Eja ergo, advocata nostra
23] Et Jesum
24] O clemens
--

Лог DR

foobar2000 1.3.13 / Замер динамического диапазона (DR) 1.1.1Дата отчёта:  2018-01-29 15:58:45
--------------------------------------------------------------------------------Анализ: Florilegium / Pergolesi Stabat Mater--------------------------------------------------------------------------------
DR Пики RMS Продолжительность трека--------------------------------------------------------------------------------DR14 -4.41 дБ -25.16 дБ 3:58 01-Stabat MaterDR15 -4.46 дБ -24.88 дБ 2:28 02-Cujus animam gementemDR14 -5.78 дБ -24.64 дБ 2:10 03-O quam tristisDR14 -4.81 дБ -24.79 дБ 2:15 04-Quae moerebat et dolebatDR13 -5.71 дБ -24.52 дБ 3:15 05-Quis est homoDR14 -5.66 дБ -25.39 дБ 3:36 06-Vidit suum dulcem NatumDR13 -7.17 дБ -25.26 дБ 2:15 07-Eja MaterDR14 -4.90 дБ -23.48 дБ 2:12 08-Fac ut ardeat cor meumDR14 -5.10 дБ -24.75 дБ 5:32 09-Sancta MaterDR14 -7.99 дБ -25.48 дБ 3:39 10-Fac ut portemDR13 -6.73 дБ -25.12 дБ 2:01 11-Inflammatus et accensusDR14 -4.97 дБ -25.12 дБ 4:25 12-Quando corpus-AmenDR13 -8.54 дБ -25.58 дБ 4:15 13-Flute concerto -SpiritosoDR13 -8.32 дБ -25.52 дБ 4:12 14-LargoDR13 -8.90 дБ -25.83 дБ 4:29 15-Allegro SpiritosoDR13 -9.90 дБ -26.43 дБ 1:09 16-Sinfonia-ComodoDR13 -7.65 дБ -25.66 дБ 1:48 17-AllegroDR13 -10.09 дБ -26.60 дБ 1:57 18-AdagioDR13 -7.81 дБ -25.79 дБ 2:02 19-PrestoDR13 -8.27 дБ -25.62 дБ 4:10 20-Salve ReginaDR13 -5.84 дБ -25.27 дБ 4:36 21-Ad te clamamusDR13 -5.64 дБ -24.58 дБ 1:33 22-Eja ergo, advocata nostraDR13 -8.15 дБ -25.43 дБ 2:18 23-Et JesumDR12 -10.42 дБ -25.78 дБ 1:47 24-O clemens--------------------------------------------------------------------------------
Количество треков: 24Реальные значения DR: DR13
Частота: 2822400 Гц / Частота PCM: 352800 ГцКаналов: 5Разрядность: 24Битрейт: 14112 кбит/сКодек: DST64================================================================================
--------------------------------------------------------------------------------Анализ: Florilegium / Pergolesi Stabat Mater--------------------------------------------------------------------------------
DR Пики RMS Продолжительность трека--------------------------------------------------------------------------------DR15 -4.85 дБ -24.63 дБ 3:58 01-Stabat MaterDR16 -4.46 дБ -24.39 дБ 2:28 02-Cujus animam gementemDR14 -5.89 дБ -23.82 дБ 2:10 03-O quam tristisDR15 -5.20 дБ -24.03 дБ 2:15 04-Quae moerebat et dolebatDR12 -6.02 дБ -23.62 дБ 3:15 05-Quis est homoDR15 -5.42 дБ -25.10 дБ 3:36 06-Vidit suum dulcem NatumDR14 -7.19 дБ -24.84 дБ 2:15 07-Eja MaterDR14 -4.80 дБ -22.33 дБ 2:12 08-Fac ut ardeat cor meumDR15 -5.04 дБ -24.06 дБ 5:32 09-Sancta MaterDR15 -7.14 дБ -25.25 дБ 3:39 10-Fac ut portemDR14 -7.04 дБ -24.66 дБ 2:01 11-Inflammatus et accensusDR15 -5.40 дБ -24.64 дБ 4:25 12-Quando corpus-AmenDR14 -8.14 дБ -25.26 дБ 4:15 13-Flute concerto -SpiritosoDR12 -8.41 дБ -25.14 дБ 4:12 14-LargoDR14 -8.76 дБ -25.76 дБ 4:29 15-Allegro SpiritosoDR13 -9.65 дБ -25.74 дБ 1:09 16-Sinfonia-ComodoDR14 -7.52 дБ -24.55 дБ 1:48 17-AllegroDR13 -10.50 дБ -26.13 дБ 1:57 18-AdagioDR14 -7.50 дБ -24.75 дБ 2:02 19-PrestoDR13 -8.62 дБ -25.04 дБ 4:10 20-Salve ReginaDR14 -5.73 дБ -24.48 дБ 4:36 21-Ad te clamamusDR13 -5.74 дБ -23.38 дБ 1:33 22-Eja ergo, advocata nostraDR13 -8.67 дБ -24.64 дБ 2:18 23-Et JesumDR12 -9.59 дБ -25.24 дБ 1:47 24-O clemens--------------------------------------------------------------------------------
Количество треков: 24Реальные значения DR: DR14
Частота: 2822400 Гц / Частота PCM: 352800 ГцКаналов: 2Разрядность: 24Битрейт: 5645 кбит/сКодек: DST64================================================================================



Ви не можете починати теми
Ви не можете відповідати на повідомлення
Ви не можете редагувати свої повідомлення
Ви не можете видаляти свої повідомлення
Ви не можете голосувати в опитуваннях
Ви не можете прикріплювати файли до повідомлень
Ви можете скачувати файли