[SACD-R][OF] Beethoven & Mendelssohn Violin Concertos (Виктория Муллова / Viktoria Mullova, John Eliot Gardiner, Orchestre Revolutionnaire et Romantique- ) - 2003 (Classical/Orchestral/Violin)


Статистика роздачі [Оновити пиров]
Розмір:  3,37 GB   |    Зареєстрований:  1 рік   |    Скачано:  0 раз

Повного джерела не було: Ніколи

by Козак ®
09-Бер-2018 20:15


[SACD-R][OF] Beethoven & Mendelssohn Violin Concertos (Виктория Муллова / Viktoria Mullova, John Eliot Gardiner, Orchestre Revolutionnaire et Romantique- ) - 2003 (Classical/Orchestral/Violin)

Viktoria Mullova, John Eliot Gardiner
Orchestre Révolutionnaire et Romantique
Beethoven & Mendelssohn Violin Concertos
- Формат записи/Источник записи: [SACD-R][OF]
Наличие водяных знаков: Нет
Год издания/переиздания диска: 2003
Жанр: Classical/Orchestral/Violin
Издатель (лейбл): Phillips
Продолжительность: 01:08: 17
Наличие сканов в содержимом раздачи: Да (сканы)-Треклист:
Ludwig van Beethoven (1770 – 1827)
Violin Concerto In D, Op.61 / Cadenzas by Ottavio Dantone
1. Allegro ma non troppo 23:10
2. Larghetto 8:15
3. Rondo. Allegro 9:26
Felix Mendelssohn (1809 – 1847)
Violin Concerto in E minor, Op.64
4. Allegro molto appassionato 12:52
5. Andante 7:06
6. Allegro non troppo – Allegro molto vivace 7:11-Viktoria Mullova: violin
John Eliot Gardiner conductor
Orchestre Révolutionnaire et Romantique-Контейнер: ISO (*.iso)
Тип рипа: image
Разрядность: 64(2,8 MHz/1 Bit)
Формат: DST64
Количество каналов: 5.1, 2.0-Доп. информация: Phillips 470 629-2 (2003)
SACD rip via PS3 to iso (3.37GB)
This iso was made with sacd-ripper version 0.36 for PS3, from the magical Mr_Wicked.
Источник (релизер): ManWhoCan (PS³SACD)
https://www.sa-cd.net/showtitle/1134
https://www.amazon.com/Beethoven-Mendelssohn-Concertos-Mullova-Gardiner/dp/B000093OS6

Лог DR

foobar2000 1.3.13 / Замер динамического диапазона (DR) 1.1.1Дата отчёта:  2018-02-21 21:23:24
--------------------------------------------------------------------------------Анализ: Viktoria Mullova / Orchestre Rйvolutionnaire et Romantique / John Eliot Gardiner / Beethoven & Mendelssohn: Violin Concertos--------------------------------------------------------------------------------
DR Пики RMS Продолжительность трека--------------------------------------------------------------------------------DR12 -8.41 дБ -28.14 дБ 23:09 01-Violin Concerto in D major - I Allegro ma non troppoDR10 -10.66 дБ -28.79 дБ 8:16 02-Violin Concerto in D major - II Larghetto --DR12 -6.21 дБ -27.72 дБ 9:26 03-Violin Concerto in D major - III RondoDR11 -8.70 дБ -27.73 дБ 12:52 04-Violin Concerto in E minor - I Allegro molto appassionato --DR12 -8.98 дБ -28.59 дБ 7:06 05-Violin Concerto in E minor - II AndanteDR12 -5.67 дБ -27.69 дБ 7:10 06-Violin Concerto in E minor - III Allegretto non troppo -- Allegro molto vivace--------------------------------------------------------------------------------
Количество треков: 6Реальные значения DR: DR12
Частота: 2822400 Гц / Частота PCM: 352800 ГцКаналов: 6Разрядность: 24Битрейт: 16934 кбит/сКодек: DST64================================================================================
--------------------------------------------------------------------------------Анализ: Viktoria Mullova / Orchestre Rйvolutionnaire et Romantique / John Eliot Gardiner / Beethoven & Mendelssohn: Violin Concertos--------------------------------------------------------------------------------
DR Пики RMS Продолжительность трека--------------------------------------------------------------------------------DR16 -5.50 дБ -25.68 дБ 23:09 01-Violin Concerto in D major - I Allegro ma non troppoDR14 -10.67 дБ -27.25 дБ 8:16 02-Violin Concerto in D major - II Larghetto --DR15 -2.56 дБ -24.70 дБ 9:26 03-Violin Concerto in D major - III RondoDR14 -5.76 дБ -24.83 дБ 12:52 04-Violin Concerto in E minor - I Allegro molto appassionato --DR16 -5.67 дБ -26.69 дБ 7:06 05-Violin Concerto in E minor - II AndanteDR16 -3.57 дБ -24.74 дБ 7:10 06-Violin Concerto in E minor - III Allegretto non troppo -- Allegro molto vivace--------------------------------------------------------------------------------
Количество треков: 6Реальные значения DR: DR15
Частота: 2822400 Гц / Частота PCM: 352800 ГцКаналов: 2Разрядность: 24Битрейт: 5645 кбит/сКодек: DST64================================================================================

Об альбоме (сборнике)

Mullova finds just the right amount of sparkle alternating with truly rich romantic feeling in the slow movement, & the whole makes for a superbly satisfying reading. Gardiner supports but doesn’t drown her out, & the results are collaborative music making at its very best.
~ Record Review / Steven Ritter, Audiophile Audition / 21. June 2014
AllMusic:
Viktoria Mullova & John Eliot Gardiner: Mullova, a strong-toned, intense, & very virtuosic Russian violinist living in the West, an individualist without a trace of idiosyncrasy & a expressivist without a trace of sentimentality, & Gardiner, a superb proponent of period instruments who’s out of his depths with passionate expressivity, an excellent exponent of Handel & Bach who’s over his head with Beethoven or Berlioz, a conducting collection of idiosyncrasies passing himself off as an interpreter & an amateur passing himself off as an individualist. What could they have to say to each other? At least in this 2002 recording of the Beethoven & Mendelssohn violin concertos, the answer is: nothing good. Mullova is reserved, restrained, & almost reluctant, her tone contracted, her intensity constrained, & her virtuosity constricted. Gardiner leads the Orchestre Revolutionnaire et Romantique in an instrumentally colourful but ultimately lax & soporific accompaniment. Together, Mullova & Gardiner turn in a pair of tepid & timid performances with only Mullova’s fiery & passionate performances of Ottavio Dantone’s cadenzas to the Beethoven concerto to make the disc worth hearing. Philips’ sound is a little too reverberant & oddly empty.
Gramophone review:
Interesting this, on a number of counts. Viktoria Mullova brings quite different qualities to bear on both works, chaste and unruffled in Beethoven, more demonstrably romantic in Mendelssohn, her vibrato marginally more intense and with subtly negotiated slides. Sir John Eliot Gardener is an attentive collaborator who in Beethoven’s first movement points up contrasts between a flowing legato and the forceful stamping of the timpani-inspired main idea, and lends added animation to various scale-like ascending passages. Ottavio Dantone provides flamboyant cadenzas, and the sum effect is of a considered, breathing encounter between the epic and the intimate, the full tutti tower blocks spasmodically dominating an otherwise serene landscape.
In Mendelssohn’s Concerto much thought has gone into fashioning the finale, taken at a leisurely tempo and with the orchestra audibly appropriating and distributing elements of the soloist’s opening phrase. Few performances make such a gripping feature of the movement’s dialogue element and Mullova again bows a bright, mercurial solo line. Gardiner takes Mendelssohn at his word in stressing the first movement’s Allegro molto appassionato, not by pushing the tempo (which he never does) but by applying precisely the right degree of weight and pressure to key tutti – much aided, incidentally, by the lowered pitch.
Extract from: www.gramophone.co.uk



Ви не можете починати теми
Ви не можете відповідати на повідомлення
Ви не можете редагувати свої повідомлення
Ви не можете видаляти свої повідомлення
Ви не можете голосувати в опитуваннях
Ви не можете прикріплювати файли до повідомлень
Ви можете скачувати файли