[DVDA][OF] Camerata Freden - Schubert Octet in F major D 803 - op. posth. 166 - 2004 (Classical)


Статистика роздачі [Оновити пиров]
Розмір:  2,91 GB   |    Зареєстрований:  1 рік   |    Скачано:  0 раз

Повного джерела не було: Ніколи

by Козак ®
09-Бер-2018 20:15


[DVDA][OF] Camerata Freden - Schubert Octet in F major D 803 - op. posth. 166 - 2004 (Classical)

Franz Schubert
Camerata Freden
Schubert Octet in F major D 803 - op. posth. 166
Формат записи/Источник записи: [DVDA][OF]
Наличие водяных знаков: Нет
Год издания/переиздания диска: 2004
Жанр: Classical
Издатель(лейбл): Tacet
Продолжительность: 00:57:47
Наличие сканов в содержимом раздачи: Нет
Треклист:
01. Adagio - Allegro (14:05)
02. Adagio (9:59)
03. Allegro vivace (6:18)
04. Andante (11:27)
05. Menuetto. Allegretto (6:21)
06. Andante molto - Allegro (9:37)
Контейнер: ISO (*.iso)
Тип рипа: image
Разрядность: 24/96
Формат: MLP(PPCM)
Количество каналов: 5.1
Источник (релизер): собственный рип
Оркестр: Camerata Freden
Композитор: Franz Schubert (1797-1828)

Состав

Adrian Adlam-violin
Cristiano Gualco-violin
Marjolein Dispa-violin
Mishel Dispa-violoncello
Lika Emmert-Doble Bass
Machael Hesselink-clarinet
Letizia Viola-Bassoon Fagott
Ron Schaaper-Horn

DR value

foobar2000 1.3.7 / Dynamic Range Meter 1.1.1
log date: 2018-03-04 17:43:42
--------------------------------------------------------------------------------
Analyzed: ? / SCHUBERT
--------------------------------------------------------------------------------
DR Peak RMS Duration Track
--------------------------------------------------------------------------------
DR14 -2.06 dB -24.51 dB 14:05 01-Lf-Rf-Ls-Rs 24/96000 + C-LFE 24/96000
DR14 -2.58 dB -27.34 dB 9:59 02-Lf-Rf-Ls-Rs 24/96000 + C-LFE 24/96000
DR14 -0.11 dB -23.97 dB 6:18 03-Lf-Rf-Ls-Rs 24/96000 + C-LFE 24/96000
DR15 -3.07 dB -27.66 dB 11:28 04-Lf-Rf-Ls-Rs 24/96000 + C-LFE 24/96000
DR14 -4.21 dB -26.66 dB 6:21 05-Lf-Rf-Ls-Rs 24/96000 + C-LFE 24/96000
DR14 -0.94 dB -24.00 dB 9:37 06-Lf-Rf-Ls-Rs 24/96000 + C-LFE 24/96000
--------------------------------------------------------------------------------
Number of tracks: 6
Official DR value: DR14
Samplerate: 96000 Hz
Channels: 6
Bits per sample: 24
Bitrate: 13824 kbps
Codec: MLP
================================================================================

Доп. информация:

Звук только в 5.1.На обыкновенных двд плейерах будет воспроизводиться только AC3-5.1




Ви не можете починати теми
Ви не можете відповідати на повідомлення
Ви не можете редагувати свої повідомлення
Ви не можете видаляти свої повідомлення
Ви не можете голосувати в опитуваннях
Ви не можете прикріплювати файли до повідомлень
Ви можете скачувати файли