(Classical, Stage & Screen) [2LP] [24/96] [Mono] J. Strauss / И. Штраус - (Die Fledermaus) Летучая Мышь. Монтаж оперетты, запись 1954 года (Хор Всесоюзного Радио, Оркестр Моск. Гос. Филармонии, дир. С. Самосуд) - 1989, FLAC (tracks)


Статистика роздачі [Оновити пиров]
Розмір:  799 MB   |    Зареєстрований:  1 рік   |    Скачано:  0 раз

Повного джерела не було: Ніколи


(Classical, Stage & Screen) [2LP] [24/96] [Mono] J. Strauss / И. Штраус - (Die Fledermaus) Летучая Мышь. Монтаж оперетты, запись 1954 года (Хор Всесоюзного Радио, Оркестр Моск. Гос. Филармонии, дир. С. Самосуд) - 1989, FLAC (tracks)

И. Штраус - Летучая Мышь (1989)
Монтаж оперетты, запись 1954 года
- Жанр: Classical, Stage & Screen
Носитель: 2LP (Repress)
Год выпуска: 1989
Лейбл: Мелодия (33 НД 01774-77)
Страна-производитель: USSR
Аудио кодек: FLAC
Тип рипа: tracks-sides
Формат записи: 24/192 (dual mono)
Формат раздачи: 24/96 (mono)
Продолжительность: 01:21:15
Тэги: прописаны
Источник оцифровки: автором раздачи
Код класса состояния винила: VG
Устройство воспроизведения: Электроника ЭП 017С
Головка звукоснимателя: ГЗМ – 028 (Корвет)
Предварительный усилитель: AMX - 100 (LTO®)
АЦП: [email protected]
Программа-оцифровщик: Adobe Audition CS6 5.0.2.
Обработка: удаление артефактов-

Трэклист + Действующие лица и исполнители:


И. Штраус (1825 - 1899)
A Летучая Мышь
B Летучая Мышь (Продолжение 1)
C Летучая Мышь (Продолжение 2)
D Летучая Мышь (Окончание)
(архивная записи)
-Оркестр Моск. Гос. Филармонии и Хор Всесоюзного Радио, дир. С. Самосуд
Русский текст Г. Ярона. Стихи Д. Цензора и Г. Регистана
Токай – Г. Ярон
Адель – Н. Ткаченко, поёт К. Рачевская
Айзеншейн – К. Михайлов, поёт Л. Неверов
Альфред – В. Зельдин, поёт М. Щавинский
Розалинда – О. Викланд, поёт Г. Сахарова
Фальк – Р. Плятт, поёт В. Захаров
Франк – Б. Петкер, поёт И. Петров
Ведущий - М. Названов

Конверт, наклейки:



Dynamic Range Meter (DR11):

foobar2000 1.1.3 / Dynamic Range Meter 1.1.1log date: 2017-12-03 09:22:17
--------------------------------------------------------------------------------Analyzed: И. Штраус / Летучая Мышь (монтаж оперетты, запись 1954 г.)--------------------------------------------------------------------------------
DR Peak RMS Duration Track--------------------------------------------------------------------------------DR10 -0.15 dB -15.47 dB 21:39 ?-A Летучая МышьDR11 -0.15 dB -14.90 dB 16:06 ?-B Летучая Мышь (Продолжение 1)DR10 -0.15 dB -14.77 dB 21:24 ?-C Летучая Мышь (Продолжение 2)DR10 -0.15 dB -15.21 dB 22:06 ?-D Летучая Мышь (Окончание)--------------------------------------------------------------------------------
Number of tracks: 3Official DR value: DR11
Samplerate: 96000 HzChannels: 1Bits per sample: 24Bitrate: 1365 kbpsCodec: FLAC================================================================================

Уровень записи, спектр, АЧХ:


- -



Ви не можете починати теми
Ви не можете відповідати на повідомлення
Ви не можете редагувати свої повідомлення
Ви не можете видаляти свої повідомлення
Ви не можете голосувати в опитуваннях
Ви не можете прикріплювати файли до повідомлень
Ви можете скачувати файли