(Bop) [CD] Dexter Gordon - 12 Classic Albums 1947-1962 (6CD) - 2015, FLAC (image+.cue), lossless


Статистика роздачі [Оновити пиров]
Розмір:  2,13 GB   |    Зареєстрований:  4 місяця 18 днів   |    Скачано:  1 раз

Повного джерела не було: 4 місяця 8 днів


(Bop) [CD] Dexter Gordon - 12 Classic Albums 1947-1962 (6CD) - 2015, FLAC (image+.cue), lossless

Dexter Gordon - 12 Classic Albums 1947-1962
Жанр: Bop
Носитель: CD
Страна-производитель диска (релиза): США
Год издания: 2015
Издатель (лейбл): Enlightenment
Номер по каталогу: EN6CD9044
Аудиокодек: FLAC (*.flac)
Тип рипа: image+.cue
Битрейт аудио: lossless
Продолжительность: 7:17:57
Источник (релизер): ssagwebster
Наличие сканов в содержимом раздачи: да

CD1 {63:07}

Dexter Rides Again (1950)
01. Dexter's Riff [2:47]
02. Settin' The Pace (Parts 1 & 2) [5:55]
03. So Easy [3:44]
04. Long Tall Dexter [3:03]
05. Dexter Rides Again [3:18]
06. I Can't Escape From You [3:18]
07. Dexter Digs In [3:00]
08. Dexter's Minor Mad [2:45]
09. Blow Mr. Dexter [3:00]
10. Dexter's Deck [2:54]
11. Dexter's Cuttin' Out [3:09]
Dexter Gordon (1955)
12. Blues Bikini [3:40]
13. Lullaby In Rhythm [3:05]
14. Chromatic Aberration [3:07]
15. Mischievous Lady [2:49]
16. Ghost Of A Chance [3:05]
17. Sweet And Lovely [2:52]
18. Hornin' In [7:34]

Лог создания рипа

Exact Audio Copy V1.0 beta 3 from 29. August 2011
EAC extraction logfile from 6. July 2018, 19:32
Dexter Gordon / 12 Classic Albums 1947-1962 - CD1
Used drive : TSSTcorpCDDVDW SH-224FB Adapter: 1 ID: 0
Read mode : SecureUtilize accurate stream : YesDefeat audio cache : YesMake use of C2 pointers : No
Read offset correction : 6Overread into Lead-In and Lead-Out : NoFill up missing offset samples with silence : YesDelete leading and trailing silent blocks : NoNull samples used in CRC calculations : YesUsed interface : Native Win32 interface for Win NT & 2000
Used output format : User Defined EncoderSelected bitrate : 128 kBit/sQuality : HighAdd ID3 tag : NoCommand line compressor : C:\Program Files (x86)\Exact Audio Copy\Flac\flac.exeAdditional command line options : -V -8 -T "Genre=%genre%" -T "Artist=%artist%" -T "Title=%title%" -T "Album=%albumtitle%" -T "Date=%year%" -T "Tracknumber=%tracknr%" -T "Comment=%comment%" %source%
TOC of the extracted CD
Track | Start | Length | Start sector | End sector --------------------------------------------------------- 1 | 0:00.00 | 2:46.70 | 0 | 12519 2 | 2:46.70 | 5:55.31 | 12520 | 39175 3 | 8:42.26 | 3:43.40 | 39176 | 55940 4 | 12:25.66 | 3:03.17 | 55941 | 69682 5 | 15:29.08 | 3:18.14 | 69683 | 84546 6 | 18:47.22 | 3:18.11 | 84547 | 99407 7 | 22:05.33 | 2:59.52 | 99408 | 112884 8 | 25:05.10 | 2:45.36 | 112885 | 125295 9 | 27:50.46 | 3:00.19 | 125296 | 138814 10 | 30:50.65 | 2:54.33 | 138815 | 151897 11 | 33:45.23 | 3:08.73 | 151898 | 166070 12 | 36:54.21 | 3:39.71 | 166071 | 182566 13 | 40:34.17 | 3:05.22 | 182567 | 196463 14 | 43:39.39 | 3:06.52 | 196464 | 210465 15 | 46:46.16 | 2:48.40 | 210466 | 223105 16 | 49:34.56 | 3:05.34 | 223106 | 237014 17 | 52:40.15 | 2:52.32 | 237015 | 249946 18 | 55:32.47 | 7:34.28 | 249947 | 284024
Range status and errors
Selected range
Filename D:\1\Dexter Gordon - 12 Classic Albums 1947-1962 (6CD, 2015)\CD1\Dexter Gordon - 12 Classic Albums 1947-1962 - CD1.wav
Peak level 100.0 % Extraction speed 3.0 X Range quality 100.0 % Test CRC 8EE4AE1B Copy CRC 8EE4AE1B Copy OK
No errors occurred
AccurateRip summary
Track 1 accurately ripped (confidence 15) [7CA0E871] (AR v2)Track 2 accurately ripped (confidence 15) [846462CE] (AR v2)Track 3 accurately ripped (confidence 15) [311AE484] (AR v2)Track 4 accurately ripped (confidence 15) [BA487E0B] (AR v2)Track 5 accurately ripped (confidence 15) [12B1F233] (AR v2)Track 6 accurately ripped (confidence 15) [EF2BE452] (AR v2)Track 7 accurately ripped (confidence 15) [AA0C63FD] (AR v2)Track 8 accurately ripped (confidence 15) [A2E9DEB3] (AR v2)Track 9 accurately ripped (confidence 15) [E88A859F] (AR v2)Track 10 accurately ripped (confidence 15) [9166349D] (AR v2)Track 11 accurately ripped (confidence 15) [54A5922D] (AR v2)Track 12 accurately ripped (confidence 16) [3208FAC3] (AR v2)Track 13 accurately ripped (confidence 16) [1AB6A452] (AR v2)Track 14 accurately ripped (confidence 16) [7BF68B3F] (AR v2)Track 15 accurately ripped (confidence 16) [39D86043] (AR v2)Track 16 accurately ripped (confidence 16) [4854BC82] (AR v2)Track 17 accurately ripped (confidence 16) [FAED7AD6] (AR v2)Track 18 accurately ripped (confidence 15) [369CA3F1] (AR v2)
All tracks accurately ripped
End of status report
==== Log checksum 6999D3EC098E7249587D274FC8F92855648441A0005929EDC34C8339FEDEC5B9 ====

Содержание индексной карты (.CUE)

REM GENRE JazzREM DATE 2015REM DISCID F50ECB12REM COMMENT "ExactAudioCopy v1.0b3"PERFORMER "Dexter Gordon"TITLE "12 Classic Albums 1947-1962 CD1"FILE "Dexter Gordon - 12 Classic Albums 1947-1962 CD1.wav" WAVE  TRACK 01 AUDIO    TITLE "Dexter's Riff"    PERFORMER "Dexter Gordon"    INDEX 01 00:00:00  TRACK 02 AUDIO    TITLE "Settin' the Pace (Part 1 & 2)"    PERFORMER "Dexter Gordon"    INDEX 01 02:46:70  TRACK 03 AUDIO    TITLE "So Easy"    PERFORMER "Dexter Gordon"    INDEX 01 08:42:26  TRACK 04 AUDIO    TITLE "Long Tall Dexter"    PERFORMER "Dexter Gordon"    INDEX 01 12:25:66  TRACK 05 AUDIO    TITLE "Dexter Rides Again"    PERFORMER "Dexter Gordon"    INDEX 01 15:29:08  TRACK 06 AUDIO    TITLE "I Can't Escape from You"    PERFORMER "Dexter Gordon"    INDEX 01 18:47:22  TRACK 07 AUDIO    TITLE "Dexter Digs In"    PERFORMER "Dexter Gordon"    INDEX 01 22:05:33  TRACK 08 AUDIO    TITLE "Dexter's Minor Mad"    PERFORMER "Dexter Gordon"    INDEX 01 25:05:10  TRACK 09 AUDIO    TITLE "Blow Mr. Dexter"    PERFORMER "Dexter Gordon"    INDEX 01 27:50:46  TRACK 10 AUDIO    TITLE "Dexter's Deck"    PERFORMER "Dexter Gordon"    INDEX 01 30:50:65  TRACK 11 AUDIO    TITLE "Dexter's Cuttin' Out"    PERFORMER "Dexter Gordon"    INDEX 01 33:45:23  TRACK 12 AUDIO    TITLE "Blues Bikini"    PERFORMER "Dexter Gordon"    INDEX 01 36:54:21  TRACK 13 AUDIO    TITLE "Lullaby in Rhythm"    PERFORMER "Dexter Gordon"    INDEX 01 40:34:17  TRACK 14 AUDIO    TITLE "Chromatic Aberration"    PERFORMER "Dexter Gordon"    INDEX 01 43:39:39  TRACK 15 AUDIO    TITLE "Mischievous Lady"    PERFORMER "Dexter Gordon"    INDEX 01 46:46:16  TRACK 16 AUDIO    TITLE "Ghost of a Chance"    PERFORMER "Dexter Gordon"    INDEX 01 49:34:56  TRACK 17 AUDIO    TITLE "Sweet and Lovely"    PERFORMER "Dexter Gordon"    INDEX 01 52:40:15  TRACK 18 AUDIO    TITLE "Hornin' In"    PERFORMER "Dexter Gordon"    INDEX 01 55:32:47

Отчет CUETools

[CUETools log; Date: 06.11.2018 18:53:36; Version: 2.1.5][CTDB TOCID: tvn1Fs6rRzdkyrLlGRW0XQ_dcdk-] found.Track | CTDB Status  1   | (18/18) Accurately ripped  2   | (18/18) Accurately ripped  3   | (18/18) Accurately ripped  4   | (18/18) Accurately ripped  5   | (18/18) Accurately ripped  6   | (18/18) Accurately ripped  7   | (18/18) Accurately ripped  8   | (18/18) Accurately ripped  9   | (18/18) Accurately ripped 10   | (18/18) Accurately ripped 11   | (18/18) Accurately ripped 12   | (18/18) Accurately ripped 13   | (18/18) Accurately ripped 14   | (18/18) Accurately ripped 15   | (18/18) Accurately ripped 16   | (18/18) Accurately ripped 17   | (18/18) Accurately ripped 18   | (17/18) Accurately ripped[AccurateRip ID: 002847d6-0212a31f-f50ecb12] found.Track   [  CRC   |   V2   ] Status 01     [e37da778|7ca0e871] (00+16/16) Accurately ripped 02     [a0f7b7a7|846462ce] (00+16/16) Accurately ripped 03     [ed2f3ac5|311ae484] (00+16/16) Accurately ripped 04     [a8eebd17|ba487e0b] (00+16/16) Accurately ripped 05     [3460bfbe|12b1f233] (00+16/16) Accurately ripped 06     [f8c360d1|ef2be452] (00+16/16) Accurately ripped 07     [2cccedb5|aa0c63fd] (00+16/16) Accurately ripped 08     [2b4d6e53|a2e9deb3] (00+16/16) Accurately ripped 09     [fdcafcbf|e88a859f] (00+16/16) Accurately ripped 10     [bf751411|9166349d] (00+16/16) Accurately ripped 11     [2c5d0008|54a5922d] (00+16/16) Accurately ripped 12     [cfd25eab|3208fac3] (00+17/17) Accurately ripped 13     [1cd942b7|1ab6a452] (00+17/17) Accurately ripped 14     [d18320d8|7bf68b3f] (00+17/17) Accurately ripped 15     [fea03a77|39d86043] (00+17/17) Accurately ripped 16     [a1d9c518|4854bc82] (00+17/17) Accurately ripped 17     [20fbac78|faed7ad6] (00+17/17) Accurately ripped 18     [2440252d|369ca3f1] (00+16/16) Accurately ripped
Track Peak [ CRC32 ] [W/O NULL] [ LOG ] -- 100,0 [8EE4AE1B] [66F602EF] CRC32 01 100,0 [15595B39] [4359F561] 02 97,6 [1890FC12] [CFE6BF56] 03 99,1 [C6300CE9] [5A97DBB3] 04 88,6 [A8FBF7D6] [6C210EE3] 05 97,0 [C1D98F7B] [6A90F502] 06 99,9 [95C6109B] [3B914008] 07 97,1 [95D25203] [79F7E3A0] 08 92,8 [635E6A22] [34F5144E] 09 96,1 [32A08CD2] [9B7599BC] 10 78,7 [6CF7EF35] [DC0F864E] 11 95,1 [5F8CE693] [5CD9D292] 12 94,3 [731CB754] [C70C71BF] 13 94,3 [919071E4] [AAD1EF72] 14 88,2 [05EB943D] [C6AB7077] 15 94,3 [75F190A9] [44C6021D] 16 94,3 [86507EA3] [6389C2C3] 17 94,3 [F8C64BA7] [CDC969B0] 18 94,4 [F44CF9B4] [1A30116C]

CD2 {67:13}

The Chase and Steeplechase (1956)
01. The Chase [11:36]
02. The Steeplechase [13:52]
Daddy Plays the Horn (1955)
03. Daddy Plays The Horn [9:11]
04. Confirmation [7:49]
05. Darn That Dream [4:18]
06. Number Four [4:52]
07. Autumn In New York [6:30]
08. You Can Depend On Me [9:03]

Лог создания рипа

Exact Audio Copy V1.0 beta 3 from 29. August 2011
EAC extraction logfile from 6. July 2018, 20:36
Dexter Gordon / 12 Classic Albums 1947-1962 - CD2
Used drive : TSSTcorpCDDVDW SH-224FB Adapter: 1 ID: 0
Read mode : SecureUtilize accurate stream : YesDefeat audio cache : YesMake use of C2 pointers : No
Read offset correction : 6Overread into Lead-In and Lead-Out : NoFill up missing offset samples with silence : YesDelete leading and trailing silent blocks : NoNull samples used in CRC calculations : YesUsed interface : Native Win32 interface for Win NT & 2000
Used output format : User Defined EncoderSelected bitrate : 128 kBit/sQuality : HighAdd ID3 tag : NoCommand line compressor : C:\Program Files (x86)\Exact Audio Copy\Flac\flac.exeAdditional command line options : -V -8 -T "Genre=%genre%" -T "Artist=%artist%" -T "Title=%title%" -T "Album=%albumtitle%" -T "Date=%year%" -T "Tracknumber=%tracknr%" -T "Comment=%comment%" %source%
TOC of the extracted CD
Track | Start | Length | Start sector | End sector --------------------------------------------------------- 1 | 0:00.00 | 11:36.35 | 0 | 52234 2 | 11:36.35 | 13:52.16 | 52235 | 114650 3 | 25:28.51 | 9:11.11 | 114651 | 155986 4 | 34:39.62 | 7:49.14 | 155987 | 191175 5 | 42:29.01 | 4:18.32 | 191176 | 210557 6 | 46:47.33 | 4:51.60 | 210558 | 232442 7 | 51:39.18 | 6:30.22 | 232443 | 261714 8 | 58:09.40 | 9:03.35 | 261715 | 302474
Range status and errors
Selected range
Filename D:\1\Dexter Gordon - 12 Classic Albums 1947-1962 (6CD, 2015)\CD2\Dexter Gordon - 12 Classic Albums 1947-1962 - CD2.wav
Peak level 100.0 % Extraction speed 3.1 X Range quality 100.0 % Test CRC E183F3EE Copy CRC E183F3EE Copy OK
No errors occurred
AccurateRip summary
Track 1 accurately ripped (confidence 4) [F12D0D0F] (AR v2)Track 2 accurately ripped (confidence 4) [2454D326] (AR v2)Track 3 accurately ripped (confidence 4) [5E7FC120] (AR v2)Track 4 accurately ripped (confidence 4) [D4F977C6] (AR v2)Track 5 accurately ripped (confidence 4) [6739EF1B] (AR v2)Track 6 accurately ripped (confidence 4) [3AC15651] (AR v2)Track 7 accurately ripped (confidence 4) [C573D999] (AR v2)Track 8 accurately ripped (confidence 4) [34A0BE89] (AR v2)
All tracks accurately ripped
End of status report
==== Log checksum 32E753C5D9E806B30F11EBD51B5B6296B91B3894E1EBBC65C3DDBCA6FE95FC01 ====

Содержание индексной карты (.CUE)

REM GENRE JazzREM DATE 2015REM DISCID 630FC108REM COMMENT "ExactAudioCopy v1.0b3"PERFORMER "Dexter Gordon"TITLE "12 Classic Albums 1947-1962 CD2"FILE "Dexter Gordon - 12 Classic Albums 1947-1962 CD2.wav" WAVE  TRACK 01 AUDIO    TITLE "The Chase"    PERFORMER "Dexter Gordon"    INDEX 01 00:00:00  TRACK 02 AUDIO    TITLE "The Steeplechase"    PERFORMER "Dexter Gordon"    INDEX 01 11:36:35  TRACK 03 AUDIO    TITLE "Daddy Plays the Horn"    PERFORMER "Dexter Gordon"    INDEX 01 25:28:51  TRACK 04 AUDIO    TITLE "Confirmation"    PERFORMER "Dexter Gordon"    INDEX 01 34:39:62  TRACK 05 AUDIO    TITLE "Darn That Dream"    PERFORMER "Dexter Gordon"    INDEX 01 42:29:01  TRACK 06 AUDIO    TITLE "Number Four"    PERFORMER "Dexter Gordon"    INDEX 01 46:47:33  TRACK 07 AUDIO    TITLE "Autumn in New York"    PERFORMER "Dexter Gordon"    INDEX 01 51:39:18  TRACK 08 AUDIO    TITLE "You Can Depend on Me"    PERFORMER "Dexter Gordon"    INDEX 01 58:09:40

Отчет CUETools

[CUETools log; Date: 06.11.2018 18:53:47; Version: 2.1.5][CTDB TOCID: 2g_afb2exNd17DpLpFmbxNRgYxQ-] found.Track | CTDB Status  1   | (17/17) Accurately ripped  2   | (17/17) Accurately ripped  3   | (10/17) Accurately ripped  4   | (10/17) Accurately ripped  5   | (17/17) Accurately ripped  6   | (10/17) Accurately ripped  7   | (17/17) Accurately ripped  8   | (10/17) Accurately ripped[AccurateRip ID: 00173658-00948a28-630fc108] found.Track   [  CRC   |   V2   ] Status 01     [f808e844|f12d0d0f] (00+05/16) Accurately ripped 02     [5a335a99|2454d326] (00+05/16) Accurately ripped 03     [99f8bf36|5e7fc120] (00+05/15) Accurately ripped 04     [d6b79bfc|d4f977c6] (00+05/15) Accurately ripped 05     [ee51fd5b|6739ef1b] (00+05/15) Accurately ripped 06     [866a1ba3|3ac15651] (00+05/15) Accurately ripped 07     [522d2cde|c573d999] (00+05/15) Accurately ripped 08     [7c13058c|34a0be89] (00+05/15) Accurately rippedOffsetted by 6: 01     [212d64a4] (00/16) No match (V2 was not tested) 02     [04bcd79c] (00/16) No match (V2 was not tested) 03     [6debea91] (00/15) No match (V2 was not tested) 04     [f4c3eee8] (00/15) No match (V2 was not tested) 05     [f4edd591] (00/15) No match (V2 was not tested) 06     [9cf5039c] (00/15) No match (V2 was not tested) 07     [cfa47eb1] (00/15) No match (V2 was not tested) 08     [27ce1fc0] (00/15) No match (V2 was not tested)
Track Peak [ CRC32 ] [W/O NULL] [ LOG ] -- 100,0 [E183F3EE] [1DB5134A] CRC32 01 75,9 [9D4A7225] [3A497E10] 02 77,5 [69030A34] [73284944] 03 97,6 [DF0AB23B] [6D7A1A22] 04 95,6 [423F79C3] [0A66AF19] 05 100,0 [65223B5F] [C796E49C] 06 95,1 [0B2239C1] [4ED716DA] 07 82,6 [335B3760] [90227F24] 08 96,6 [BA1817C0] [B6B2F839]

CD3 {76:45}

Jazz Concert West Coast (1955)
01. Disorder At The Border [19:37]
02. Rocks & Shoals [18:21]
Dexter Blows Hot and Cool (1955)
03. Silver Plated [4:06]
04. Cry Me A River [3:47]
05. Rhythm Mad [4:31]
06. Don't Worry About Me [3:50]
07. I Hear Music [3:41]
08. Bonna Rue [6:58]
09. I Should Care [2:46]
10. Blowin' For Dootsie [5:35]
11. Tenderly [3:34]

Лог создания рипа

Exact Audio Copy V1.0 beta 3 from 29. August 2011
EAC extraction logfile from 7. July 2018, 0:19
Dexter Gordon / 12 Classic Albums 1947-1962 - CD3
Used drive : TSSTcorpCDDVDW SH-224FB Adapter: 1 ID: 0
Read mode : SecureUtilize accurate stream : YesDefeat audio cache : YesMake use of C2 pointers : No
Read offset correction : 6Overread into Lead-In and Lead-Out : NoFill up missing offset samples with silence : YesDelete leading and trailing silent blocks : NoNull samples used in CRC calculations : YesUsed interface : Native Win32 interface for Win NT & 2000
Used output format : User Defined EncoderSelected bitrate : 128 kBit/sQuality : HighAdd ID3 tag : NoCommand line compressor : C:\Program Files (x86)\Exact Audio Copy\Flac\flac.exeAdditional command line options : -V -8 -T "Genre=%genre%" -T "Artist=%artist%" -T "Title=%title%" -T "Album=%albumtitle%" -T "Date=%year%" -T "Tracknumber=%tracknr%" -T "Comment=%comment%" %source%
TOC of the extracted CD
Track | Start | Length | Start sector | End sector --------------------------------------------------------- 1 | 0:00.00 | 19:36.52 | 0 | 88251 2 | 19:36.52 | 18:21.03 | 88252 | 170829 3 | 37:57.55 | 4:05.74 | 170830 | 189278 4 | 42:03.54 | 3:46.74 | 189279 | 206302 5 | 45:50.53 | 4:30.49 | 206303 | 226601 6 | 50:21.27 | 3:50.34 | 226602 | 243885 7 | 54:11.61 | 3:40.61 | 243886 | 260446 8 | 57:52.47 | 6:57.62 | 260447 | 291783 9 | 64:50.34 | 2:46.34 | 291784 | 304267 10 | 67:36.68 | 5:34.43 | 304268 | 329360 11 | 73:11.36 | 3:33.39 | 329361 | 345374
Range status and errors
Selected range
Filename D:\1\Dexter Gordon - 12 Classic Albums 1947-1962 (6CD, 2015)\CD3\Dexter Gordon - 12 Classic Albums 1947-1962 - CD3.wav
Peak level 96.3 % Extraction speed 3.4 X Range quality 100.0 % Test CRC CC3A5E95 Copy CRC CC3A5E95 Copy OK
No errors occurred
AccurateRip summary
Track 1 accurately ripped (confidence 14) [90277F81] (AR v2)Track 2 accurately ripped (confidence 15) [59ECD1F1] (AR v2)Track 3 accurately ripped (confidence 15) [900A7D95] (AR v2)Track 4 accurately ripped (confidence 15) [FEA320D5] (AR v2)Track 5 accurately ripped (confidence 15) [1AC8B0DE] (AR v2)Track 6 accurately ripped (confidence 15) [15294327] (AR v2)Track 7 accurately ripped (confidence 15) [267C26FA] (AR v2)Track 8 accurately ripped (confidence 15) [FD15FB6A] (AR v2)Track 9 accurately ripped (confidence 15) [E98D5519] (AR v2)Track 10 accurately ripped (confidence 15) [042B6860] (AR v2)Track 11 accurately ripped (confidence 15) [33BC090D] (AR v2)
All tracks accurately ripped
End of status report
==== Log checksum D5A254FA854154FB8326245CAD305EBC4AB114D862239E7612F5A2F2B1EFE853 ====

Содержание индексной карты (.CUE)

REM GENRE JazzREM DATE 2015REM DISCID A611FD0BREM COMMENT "ExactAudioCopy v1.0b3"PERFORMER "Dexter Gordon"TITLE "12 Classic Albums 1947-1962 CD3"FILE "Dexter Gordon - 12 Classic Albums 1947-1962 CD3.wav" WAVE  TRACK 01 AUDIO    TITLE "Disorder at the Border"    PERFORMER "Dexter Gordon"    INDEX 01 00:00:00  TRACK 02 AUDIO    TITLE "The Hunt (a.k.a. Rocks & Shoals)"    PERFORMER "Dexter Gordon"    INDEX 01 19:36:52  TRACK 03 AUDIO    TITLE "Silver Plated"    PERFORMER "Dexter Gordon"    INDEX 01 37:57:55  TRACK 04 AUDIO    TITLE "Cry Me a River"    PERFORMER "Dexter Gordon"    INDEX 01 42:03:54  TRACK 05 AUDIO    TITLE "Rhythm Mad"    PERFORMER "Dexter Gordon"    INDEX 01 45:50:53  TRACK 06 AUDIO    TITLE "Don't Worry About Me"    PERFORMER "Dexter Gordon"    INDEX 01 50:21:27  TRACK 07 AUDIO    TITLE "I Hear Music"    PERFORMER "Dexter Gordon"    INDEX 01 54:11:61  TRACK 08 AUDIO    TITLE "Bonna Rue"    PERFORMER "Dexter Gordon"    INDEX 01 57:52:47  TRACK 09 AUDIO    TITLE "I Should Care"    PERFORMER "Dexter Gordon"    INDEX 01 64:50:34  TRACK 10 AUDIO    TITLE "Blowin' for Dootsie"    PERFORMER "Dexter Gordon"    INDEX 01 67:36:68  TRACK 11 AUDIO    TITLE "Tenderly"    PERFORMER "Dexter Gordon"    INDEX 01 73:11:36

Отчет CUETools

[CUETools log; Date: 06.11.2018 18:53:59; Version: 2.1.5][CTDB TOCID: 1kNOrJkOUB5aEqG7LU70MAYy3MY-] found.Track | CTDB Status  1   | (18/18) Accurately ripped  2   | (18/18) Accurately ripped  3   | (18/18) Accurately ripped  4   | (18/18) Accurately ripped  5   | (18/18) Accurately ripped  6   | (18/18) Accurately ripped  7   | (18/18) Accurately ripped  8   | (18/18) Accurately ripped  9   | (18/18) Accurately ripped 10   | (18/18) Accurately ripped 11   | (18/18) Accurately ripped[AccurateRip ID: 00288883-01416a1f-a611fd0b] found.Track   [  CRC   |   V2   ] Status 01     [b042530a|90277f81] (00+15/15) Accurately ripped 02     [7012de4f|59ecd1f1] (00+16/16) Accurately ripped 03     [fee39bc5|900a7d95] (00+16/16) Accurately ripped 04     [30b43a02|fea320d5] (00+16/16) Accurately ripped 05     [72e2269d|1ac8b0de] (00+16/16) Accurately ripped 06     [6172c4bf|15294327] (00+16/16) Accurately ripped 07     [e1acd8de|267c26fa] (00+16/16) Accurately ripped 08     [821f9867|fd15fb6a] (00+16/16) Accurately ripped 09     [022db0d8|e98d5519] (00+16/16) Accurately ripped 10     [f0cba801|042b6860] (00+16/16) Accurately ripped 11     [535b083b|33bc090d] (00+16/16) Accurately ripped
Track Peak [ CRC32 ] [W/O NULL] [ LOG ] -- 96,3 [CC3A5E95] [A7B54523] CRC32 01 96,3 [C6451DDC] [1AF77B64] 02 86,1 [2CD94A64] [CA338476] 03 79,5 [9637309F] [0D33DA88] 04 79,0 [AE878BB5] [45CA58F0] 05 83,2 [D0CF345E] [8FFABCB7] 06 85,9 [4B568140] [279F87E9] 07 95,4 [A4A73DFF] [DAF3F470] 08 86,5 [9FC2AE55] [8922BD9F] 09 82,0 [92273151] [347572EC] 10 88,6 [FE882497] [35B35A59] 11 80,0 [37009540] [52D0FD5D]

CD4 {75:11}

West Coast Jazz Concert (1957)
01. Blow-Blow-Blow [13:45]
02. Cherry Koke [21:31]
The Resurgence of Dexter Gordon (1960)
03. Home Run [5:07]
04. Dolo [6:17]
05. Lovely Lisa [7:24]
06. Affair In Havana [7:42]
07. Jodi [6:39]
08. Field Day [6:46]

Лог создания рипа

Exact Audio Copy V1.0 beta 3 from 29. August 2011
EAC extraction logfile from 7. July 2018, 21:58
Dexter Gordon / 12 Classic Albums 1947-1962 - CD4
Used drive : TSSTcorpCDDVDW SH-224FB Adapter: 1 ID: 0
Read mode : SecureUtilize accurate stream : YesDefeat audio cache : YesMake use of C2 pointers : No
Read offset correction : 6Overread into Lead-In and Lead-Out : NoFill up missing offset samples with silence : YesDelete leading and trailing silent blocks : NoNull samples used in CRC calculations : YesUsed interface : Native Win32 interface for Win NT & 2000
Used output format : User Defined EncoderSelected bitrate : 128 kBit/sQuality : HighAdd ID3 tag : NoCommand line compressor : C:\Program Files (x86)\Exact Audio Copy\Flac\flac.exeAdditional command line options : -V -8 -T "Genre=%genre%" -T "Artist=%artist%" -T "Title=%title%" -T "Album=%albumtitle%" -T "Date=%year%" -T "Tracknumber=%tracknr%" -T "Comment=%comment%" %source%
TOC of the extracted CD
Track | Start | Length | Start sector | End sector --------------------------------------------------------- 1 | 0:00.00 | 13:44.62 | 0 | 61861 2 | 13:44.62 | 21:30.69 | 61862 | 158680 3 | 35:15.56 | 5:07.29 | 158681 | 181734 4 | 40:23.10 | 6:16.61 | 181735 | 209995 5 | 46:39.71 | 7:23.66 | 209996 | 243286 6 | 54:03.62 | 7:41.59 | 243287 | 277920 7 | 61:45.46 | 6:39.17 | 277921 | 307862 8 | 68:24.63 | 6:46.12 | 307863 | 338324
Range status and errors
Selected range
Filename D:\1\Dexter Gordon - 12 Classic Albums 1947-1962 (6CD, 2015)\CD4\Dexter Gordon - 12 Classic Albums 1947-1962 - CD4.wav
Peak level 100.0 % Extraction speed 3.3 X Range quality 100.0 % Test CRC 996F7A75 Copy CRC 996F7A75 Copy OK
No errors occurred
AccurateRip summary
Track 1 accurately ripped (confidence 15) [D51DB83A] (AR v2)Track 2 accurately ripped (confidence 15) [9B27ACCB] (AR v2)Track 3 accurately ripped (confidence 15) [3A48D3CA] (AR v2)Track 4 accurately ripped (confidence 15) [9E9DAC84] (AR v2)Track 5 accurately ripped (confidence 15) [4A57EBFF] (AR v2)Track 6 accurately ripped (confidence 15) [253F67E6] (AR v2)Track 7 accurately ripped (confidence 14) [EFAAD828] (AR v2)Track 8 accurately ripped (confidence 14) [27528B79] (AR v2)
All tracks accurately ripped
End of status report
==== Log checksum 3CF91DE41C11657BC604DEA19CE400B9D5A62A645CE62B0D3255FCAEC76DFF79 ====

Содержание индексной карты (.CUE)

REM GENRE JazzREM DATE 2015REM DISCID 5F119F08REM COMMENT "ExactAudioCopy v1.0b3"PERFORMER "Dexter Gordon"TITLE "12 Classic Albums 1947-1962 CD4"FILE "Dexter Gordon - 12 Classic Albums 1947-1962 CD4.wav" WAVE  TRACK 01 AUDIO    TITLE "Blow-Blow-Blow"    PERFORMER "Dexter Gordon"    INDEX 01 00:00:00  TRACK 02 AUDIO    TITLE "Cherry Koke"    PERFORMER "Dexter Gordon"    INDEX 01 13:44:62  TRACK 03 AUDIO    TITLE "Home Run"    PERFORMER "Dexter Gordon"    INDEX 01 35:15:56  TRACK 04 AUDIO    TITLE "Dolo"    PERFORMER "Dexter Gordon"    INDEX 01 40:23:10  TRACK 05 AUDIO    TITLE "Lovely Lisa"    PERFORMER "Dexter Gordon"    INDEX 01 46:39:71  TRACK 06 AUDIO    TITLE "Affair in Havana"    PERFORMER "Dexter Gordon"    INDEX 01 54:03:62  TRACK 07 AUDIO    TITLE "Jodi"    PERFORMER "Dexter Gordon"    INDEX 01 61:45:46  TRACK 08 AUDIO    TITLE "Field Day"    PERFORMER "Dexter Gordon"    INDEX 01 68:24:63

Отчет CUETools

[CUETools log; Date: 06.11.2018 18:54:10; Version: 2.1.5][CTDB TOCID: 5Rdq7lhWxM_QtE3rDZTb5FC2Q2Y-] found.Track | CTDB Status  1   | (16/16) Accurately ripped  2   | (16/16) Accurately ripped  3   | (16/16) Accurately ripped  4   | (16/16) Accurately ripped  5   | (16/16) Accurately ripped  6   | (16/16) Accurately ripped  7   | (15/16) Accurately ripped  8   | (15/16) Accurately ripped[AccurateRip ID: 001b27d6-00ac4456-5f119f08] found.Track   [  CRC   |   V2   ] Status 01     [334e1dd1|d51db83a] (00+16/16) Accurately ripped 02     [a42b82fa|9b27accb] (00+16/16) Accurately ripped 03     [24948f53|3a48d3ca] (00+16/16) Accurately ripped 04     [5b0ef716|9e9dac84] (00+16/16) Accurately ripped 05     [9a802bdf|4a57ebff] (00+16/16) Accurately ripped 06     [49dea9ea|253f67e6] (00+16/16) Accurately ripped 07     [4b7b19b9|efaad828] (00+15/15) Accurately ripped 08     [370c73dd|27528b79] (00+15/15) Accurately ripped
Track Peak [ CRC32 ] [W/O NULL] [ LOG ] -- 100,0 [996F7A75] [81CB2794] CRC32 01 100,0 [1C312EE6] [7EA07C3C] 02 95,3 [0D9A5AD3] [73F4940D] 03 100,0 [591A177A] [21527C5B] 04 100,0 [A16DCD75] [11874391] 05 100,0 [318DD434] [68BFE56E] 06 100,0 [C976492A] [3BE0E261] 07 94,4 [3C146F7C] [6B3C5DA4] 08 100,0 [E9701C68] [5802D137]

CD5 {79:23}

Doin' Allright (1961)
01. I Was Doing All Right [9:24]
02. You've Changed [7:30]
03. For Regulars Only [5:48]
04. Society Red [12:25]
05. It's You Or No One [6:18]
Dexter Calling... (1961)
06. Soul Sister [7:45]
07. Modal Mood [5:24]
08. I Want More [5:20]
09. The End Of A Love Affair [6:54]
10. Clear The Dex [4:54]
11. Ernie's Tune [4:17]
12. Smile [3:25]

Лог создания рипа

Exact Audio Copy V1.0 beta 3 from 29. August 2011
EAC extraction logfile from 7. July 2018, 22:52
Dexter Gordon / 12 Classic Albums 1947-1962 - CD5
Used drive : TSSTcorpCDDVDW SH-224FB Adapter: 1 ID: 0
Read mode : SecureUtilize accurate stream : YesDefeat audio cache : YesMake use of C2 pointers : No
Read offset correction : 6Overread into Lead-In and Lead-Out : NoFill up missing offset samples with silence : YesDelete leading and trailing silent blocks : NoNull samples used in CRC calculations : YesUsed interface : Native Win32 interface for Win NT & 2000
Used output format : User Defined EncoderSelected bitrate : 128 kBit/sQuality : HighAdd ID3 tag : NoCommand line compressor : C:\Program Files (x86)\Exact Audio Copy\Flac\flac.exeAdditional command line options : -V -8 -T "Genre=%genre%" -T "Artist=%artist%" -T "Title=%title%" -T "Album=%albumtitle%" -T "Date=%year%" -T "Tracknumber=%tracknr%" -T "Comment=%comment%" %source%
TOC of the extracted CD
Track | Start | Length | Start sector | End sector --------------------------------------------------------- 1 | 0:00.00 | 9:23.43 | 0 | 42267 2 | 9:23.43 | 7:30.01 | 42268 | 76018 3 | 16:53.44 | 5:48.22 | 76019 | 102140 4 | 22:41.66 | 12:25.08 | 102141 | 158023 5 | 35:06.74 | 6:17.47 | 158024 | 186345 6 | 41:24.46 | 7:45.04 | 186346 | 221224 7 | 49:09.50 | 5:23.53 | 221225 | 245502 8 | 54:33.28 | 5:20.26 | 245503 | 269528 9 | 59:53.54 | 6:53.47 | 269529 | 300550 10 | 66:47.26 | 4:54.30 | 300551 | 322630 11 | 71:41.56 | 4:16.41 | 322631 | 341871 12 | 75:58.22 | 3:24.53 | 341872 | 357224
Range status and errors
Selected range
Filename D:\1\Dexter Gordon - 12 Classic Albums 1947-1962 (6CD, 2015)\CD5\Dexter Gordon - 12 Classic Albums 1947-1962 - CD5.wav
Peak level 100.0 % Extraction speed 3.5 X Range quality 100.0 % Test CRC B399F966 Copy CRC B399F966 Copy OK
No errors occurred
AccurateRip summary
Track 1 accurately ripped (confidence 13) [329F0D4A] (AR v2)Track 2 accurately ripped (confidence 13) [7ADBE771] (AR v2)Track 3 accurately ripped (confidence 13) [91B844FD] (AR v2)Track 4 accurately ripped (confidence 13) [C3230792] (AR v2)Track 5 accurately ripped (confidence 13) [CDC2A1AD] (AR v2)Track 6 accurately ripped (confidence 13) [B7D28049] (AR v2)Track 7 accurately ripped (confidence 13) [44C01792] (AR v2)Track 8 accurately ripped (confidence 13) [AE32C06F] (AR v2)Track 9 accurately ripped (confidence 13) [B06F2C12] (AR v2)Track 10 accurately ripped (confidence 13) [5E4B1529] (AR v2)Track 11 accurately ripped (confidence 12) [893DEB25] (AR v2)Track 12 accurately ripped (confidence 12) [F5E083D9] (AR v2)
All tracks accurately ripped
End of status report
==== Log checksum 23F140A96835D55C3BDB126D1F6815D8AAA898A9E519EF75D3A5DEDF68E5DA3C ====

Содержание индексной карты (.CUE)

REM GENRE JazzREM DATE 2015REM DISCID A3129B0CREM COMMENT "ExactAudioCopy v1.0b3"PERFORMER "Dexter Gordon"TITLE "12 Classic Albums 1947-1962 CD5"FILE "Dexter Gordon - 12 Classic Albums 1947-1962 CD5.wav" WAVE  TRACK 01 AUDIO    TITLE "I Was Doing All Right"    PERFORMER "Dexter Gordon"    INDEX 01 00:00:00  TRACK 02 AUDIO    TITLE "You've Changed"    PERFORMER "Dexter Gordon"    INDEX 01 09:23:43  TRACK 03 AUDIO    TITLE "For Regulars Only"    PERFORMER "Dexter Gordon"    INDEX 01 16:53:44  TRACK 04 AUDIO    TITLE "Society Red"    PERFORMER "Dexter Gordon"    INDEX 01 22:41:66  TRACK 05 AUDIO    TITLE "It's You or No One"    PERFORMER "Dexter Gordon"    INDEX 01 35:06:74  TRACK 06 AUDIO    TITLE "Soul Sister"    PERFORMER "Dexter Gordon"    INDEX 01 41:24:46  TRACK 07 AUDIO    TITLE "Modal Mood"    PERFORMER "Dexter Gordon"    INDEX 01 49:09:50  TRACK 08 AUDIO    TITLE "I Want More"    PERFORMER "Dexter Gordon"    INDEX 01 54:33:28  TRACK 09 AUDIO    TITLE "The End of a Love Affair"    PERFORMER "Dexter Gordon"    INDEX 01 59:53:54  TRACK 10 AUDIO    TITLE "Clear the Dex"    PERFORMER "Dexter Gordon"    INDEX 01 66:47:26  TRACK 11 AUDIO    TITLE "Ernie's Tune"    PERFORMER "Dexter Gordon"    INDEX 01 71:41:56  TRACK 12 AUDIO    TITLE "Smile"    PERFORMER "Dexter Gordon"    INDEX 01 75:58:22

Отчет CUETools

[CUETools log; Date: 06.11.2018 18:54:23; Version: 2.1.5][CTDB TOCID: O93ZgGe4e54b_D1R0VCj43pHm4o-] found.Track | CTDB Status  1   | (18/18) Accurately ripped  2   | (18/18) Accurately ripped  3   | (18/18) Accurately ripped  4   | (18/18) Accurately ripped  5   | (17/18) Accurately ripped  6   | (17/18) Accurately ripped  7   | (18/18) Accurately ripped  8   | (18/18) Accurately ripped  9   | (17/18) Accurately ripped 10   | (18/18) Accurately ripped 11   | (17/18) Accurately ripped 12   | (16/18) Accurately ripped[AccurateRip ID: 00280766-016c348a-a3129b0c] found.Track   [  CRC   |   V2   ] Status 01     [a915590f|329f0d4a] (00+14/14) Accurately ripped 02     [88435665|7adbe771] (00+14/14) Accurately ripped 03     [b6852e96|91b844fd] (00+14/14) Accurately ripped 04     [3af43a9b|c3230792] (00+14/14) Accurately ripped 05     [95749190|cdc2a1ad] (00+14/14) Accurately ripped 06     [370d36fe|b7d28049] (00+14/14) Accurately ripped 07     [dff93391|44c01792] (00+14/14) Accurately ripped 08     [0af1d5cd|ae32c06f] (00+14/14) Accurately ripped 09     [e0f7b5f8|b06f2c12] (00+14/14) Accurately ripped 10     [6a983c72|5e4b1529] (00+14/14) Accurately ripped 11     [bddef5d8|893deb25] (00+13/13) Accurately ripped 12     [90585b93|f5e083d9] (00+13/13) Accurately ripped
Track Peak [ CRC32 ] [W/O NULL] [ LOG ] -- 100,0 [B399F966] [A5DA9610] CRC32 01 100,0 [928315E9] [8F065F76] 02 98,2 [5540969C] [98549042] 03 100,0 [EDDDA72A] [AAAF4982] 04 98,9 [D55CC9DE] [83534AA8] 05 100,0 [A437BD9E] [FE8394C4] 06 98,8 [A59E3D5F] [795BE572] 07 100,0 [8773F6B4] [91A1A22C] 08 100,0 [317D438C] [4F6354D3] 09 100,0 [DF5B0C9F] [BA8BBB60] 10 100,0 [2468C377] [FB55C588] 11 100,0 [22C9E0EB] [35F52557] 12 100,0 [2E75EF80] [DFA06B95]

CD6 {76:18}

Go! (1962)
01. Cheese Cake [6:35]
02. I Guess I'Ll Hang My Tears Out To Dry [5:23]
03. Second Balcony Jump [7:07]
04. Love For Sale [7:40]
05. Where Are You [5:21]
06. Three O'Clock In The Morning [5:41]
A Swingin' Affair (1962)
07. Soy Califa [6:27]
08. Don't Explain [6:04]
09. You Stepped Out Of A Dream [6:34]
10. The Backbone [6:49]
11. Until The Real Thing Comes Along [6:49]
12. McSplivens [5:46]

Лог создания рипа

Exact Audio Copy V1.0 beta 3 from 29. August 2011
EAC extraction logfile from 7. July 2018, 23:44
Dexter Gordon / 12 Classic Albums 1947-1962 - CD6
Used drive : TSSTcorpCDDVDW SH-224FB Adapter: 1 ID: 0
Read mode : SecureUtilize accurate stream : YesDefeat audio cache : YesMake use of C2 pointers : No
Read offset correction : 6Overread into Lead-In and Lead-Out : NoFill up missing offset samples with silence : YesDelete leading and trailing silent blocks : NoNull samples used in CRC calculations : YesUsed interface : Native Win32 interface for Win NT & 2000
Used output format : User Defined EncoderSelected bitrate : 128 kBit/sQuality : HighAdd ID3 tag : NoCommand line compressor : C:\Program Files (x86)\Exact Audio Copy\Flac\flac.exeAdditional command line options : -V -8 -T "Genre=%genre%" -T "Artist=%artist%" -T "Title=%title%" -T "Album=%albumtitle%" -T "Date=%year%" -T "Tracknumber=%tracknr%" -T "Comment=%comment%" %source%
TOC of the extracted CD
Track | Start | Length | Start sector | End sector --------------------------------------------------------- 1 | 0:00.00 | 6:35.04 | 0 | 29628 2 | 6:35.04 | 5:23.32 | 29629 | 53885 3 | 11:58.36 | 7:07.17 | 53886 | 85927 4 | 19:05.53 | 7:40.31 | 85928 | 120458 5 | 26:46.09 | 5:21.29 | 120459 | 144562 6 | 32:07.38 | 5:41.31 | 144563 | 170168 7 | 37:48.69 | 6:27.18 | 170169 | 199211 8 | 44:16.12 | 6:03.71 | 199212 | 226507 9 | 50:20.08 | 6:33.44 | 226508 | 256026 10 | 56:53.52 | 6:48.61 | 256027 | 286687 11 | 63:42.38 | 6:49.31 | 286688 | 317393 12 | 70:31.69 | 5:46.06 | 317394 | 343349
Range status and errors
Selected range
Filename D:\1\Dexter Gordon - 12 Classic Albums 1947-1962 (6CD, 2015)\CD6\Dexter Gordon - 12 Classic Albums 1947-1962 - CD6.wav
Peak level 100.0 % Extraction speed 3.4 X Range quality 100.0 % Test CRC 8FCA11A1 Copy CRC 8FCA11A1 Copy OK
No errors occurred
AccurateRip summary
Track 1 accurately ripped (confidence 13) [50C37DC9] (AR v2)Track 2 accurately ripped (confidence 13) [6105CD88] (AR v2)Track 3 accurately ripped (confidence 13) [CF80F923] (AR v2)Track 4 accurately ripped (confidence 13) [9751B681] (AR v2)Track 5 accurately ripped (confidence 13) [D7B2E905] (AR v2)Track 6 accurately ripped (confidence 13) [78FE08AA] (AR v2)Track 7 accurately ripped (confidence 13) [7332A92B] (AR v2)Track 8 accurately ripped (confidence 13) [BE7ED6F5] (AR v2)Track 9 accurately ripped (confidence 13) [6C0BA7A8] (AR v2)Track 10 accurately ripped (confidence 13) [85E94448] (AR v2)Track 11 accurately ripped (confidence 13) [B7B32C2C] (AR v2)Track 12 accurately ripped (confidence 13) [28FE20AA] (AR v2)
All tracks accurately ripped
End of status report
==== Log checksum 1DC32693DE8DC8FE75168DD2CD265C7278F30E994A538A3F1EF2E08E255DBF61 ====

Содержание индексной карты (.CUE)

REM GENRE JazzREM DATE 2015REM DISCID A011E20CREM COMMENT "ExactAudioCopy v1.0b3"PERFORMER "Dexter Gordon"TITLE "12 Classic Albums 1947-1962 CD6"FILE "Dexter Gordon - 12 Classic Albums 1947-1962 CD6.wav" WAVE  TRACK 01 AUDIO    TITLE "Cheese Cake"    PERFORMER "Dexter Gordon"    INDEX 01 00:00:00  TRACK 02 AUDIO    TITLE "I Guess I'll Hang My Tears Out to Dry"    PERFORMER "Dexter Gordon"    INDEX 01 06:35:04  TRACK 03 AUDIO    TITLE "Second Balcony Jump"    PERFORMER "Dexter Gordon"    INDEX 01 11:58:36  TRACK 04 AUDIO    TITLE "Love for Sale"    PERFORMER "Dexter Gordon"    INDEX 01 19:05:53  TRACK 05 AUDIO    TITLE "Where Are You"    PERFORMER "Dexter Gordon"    INDEX 01 26:46:09  TRACK 06 AUDIO    TITLE "Three O'Clock in the Morning"    PERFORMER "Dexter Gordon"    INDEX 01 32:07:38  TRACK 07 AUDIO    TITLE "Soy Califa"    PERFORMER "Dexter Gordon"    INDEX 01 37:48:69  TRACK 08 AUDIO    TITLE "Don't Explain"    PERFORMER "Dexter Gordon"    INDEX 01 44:16:12  TRACK 09 AUDIO    TITLE "You Stepped Out of a Dream"    PERFORMER "Dexter Gordon"    INDEX 01 50:20:08  TRACK 10 AUDIO    TITLE "The Backbone"    PERFORMER "Dexter Gordon"    INDEX 01 56:53:52  TRACK 11 AUDIO    TITLE "Until the Real Thing Comes Along"    PERFORMER "Dexter Gordon"    INDEX 01 63:42:38  TRACK 12 AUDIO    TITLE "McSplivens"    PERFORMER "Dexter Gordon"    INDEX 01 70:31:69

Отчет CUETools

[CUETools log; Date: 06.11.2018 18:54:37; Version: 2.1.5][CTDB TOCID: D.UQgoQGe0670KK10aN8BNX_NEQ-] found.Track | CTDB Status  1   | (15/15) Accurately ripped  2   | (15/15) Accurately ripped  3   | (15/15) Accurately ripped  4   | (15/15) Accurately ripped  5   | (15/15) Accurately ripped  6   | (15/15) Accurately ripped  7   | (15/15) Accurately ripped  8   | (15/15) Accurately ripped  9   | (15/15) Accurately ripped 10   | (15/15) Accurately ripped 11   | (15/15) Accurately ripped 12   | (15/15) Accurately ripped[AccurateRip ID: 002215d5-013e0d5d-a011e20c] found.Track   [  CRC   |   V2   ] Status 01     [696e0b04|50c37dc9] (00+14/14) Accurately ripped 02     [5d02fb96|6105cd88] (00+14/14) Accurately ripped 03     [64e92889|cf80f923] (00+14/14) Accurately ripped 04     [fc819708|9751b681] (00+14/14) Accurately ripped 05     [249c9412|d7b2e905] (00+14/14) Accurately ripped 06     [5b76fb9b|78fe08aa] (00+14/14) Accurately ripped 07     [a5efea0d|7332a92b] (00+14/14) Accurately ripped 08     [e1882f2d|be7ed6f5] (00+14/14) Accurately ripped 09     [3fcc12bd|6c0ba7a8] (00+14/14) Accurately ripped 10     [bcce5b86|85e94448] (00+14/14) Accurately ripped 11     [4c00f3f3|b7b32c2c] (00+14/14) Accurately ripped 12     [7cace0a5|28fe20aa] (00+14/14) Accurately ripped
Track Peak [ CRC32 ] [W/O NULL] [ LOG ] -- 100,0 [8FCA11A1] [63531F04] CRC32 01 91,2 [0C3E804E] [824F3456] 02 73,4 [443C7261] [453DB3BC] 03 93,9 [00F2235A] [37CC1E5D] 04 78,6 [DAF0B6AF] [25EA77CD] 05 76,8 [F994929D] [DDC5E18C] 06 76,8 [4EE91E19] [EFAD1036] 07 100,0 [5BD185A1] [62084B0E] 08 95,5 [517FCDC0] [752EABAF] 09 98,8 [5D50AFD2] [BA422E2B] 10 96,5 [E72EF179] [AD99F97A] 11 91,0 [CD9F3749] [097BAF03] 12 95,3 [6EA85A11] [902E8329]

Об альбоме (сборнике)

Short stints with Lee Young, the Fletcher Henderson Orchestra, and Louis Armstrong's big band preceded his move to New York in December 1944 and becoming part of Billy Eckstine's Orchestra, trading off with Gene Ammons on Eckstine's recording of Blowin' the Blues Away. Gordon recorded with Dizzy Gillespie (Blue 'N' Boogie) and as a leader for Savoy before returning to Los Angeles in the summer of 1946. He was a chief part of the Central Avenue scene, trading off with Wardell Gray and Teddy Edwards in many legendary tenor clashes. After 1952, drug struggles resulted in some jail time and periods of indolence during the '50s (although Gordon did record two albums in 1955). By 1960, he was recovered and soon he was recording a consistently gratifying series of dates for Blue Note. However, just as he was regaining his former popularity, in 1962 Gordon moved to Europe where he would stay until 1976. This collection of 12 original LP's concentrate on Gordon's early American years up until he left for Europe. His immortal status in Jazz's hall of fame was arguably solidified during this period, with some of his most impressive and progressive playing. With remastered tracks and over 7 hours listening time, this is a seminal volume on the works of one of the true titans of Jazz.



Ви не можете починати теми
Ви не можете відповідати на повідомлення
Ви не можете редагувати свої повідомлення
Ви не можете видаляти свої повідомлення
Ви не можете голосувати в опитуваннях
Ви не можете прикріплювати файли до повідомлень
Ви можете скачувати файли