(Classical, Classical Guitar) [LP] [24/44,1] Andres Segovia – My Favourite Works - 1987, FLAC (image+.cue)


Статистика роздачі [Оновити пиров]
Розмір:  454 MB   |    Зареєстрований:  1 рік   |    Скачано:  0 раз

Повного джерела не було: Ніколи


(Classical, Classical Guitar) [LP] [24/44,1] Andres Segovia – My Favourite Works - 1987, FLAC (image+.cue)

Andres Segovia – My Favourite Works (1987)- Жанр: Classical, Classical Guitar
Носитель: LP
Год выпуска: 1987
Лейбл: MCA Records, Inc. – 254 972-1
Страна-производитель: Germany
Аудио кодек: FLAC
Тип рипа: image+.cue
Формат записи: 24/48 (dual mono)
Формат раздачи: 24/44,1 (dual mono)
Продолжительность: 00:47:59
Тэги в .cue: прописаны
Источник оцифровки: 63yura63
Код класса состояния винила: VG
Устройство воспроизведения: Audio-Techica At-Lp-120usb/78rpm
Головка звукоснимателя: At-Art9 J323/78
Предварительный усилитель: Luxman E-200
АЦП: Creativ Labs
Программа-оцифровщик: Adobe Audition CS6
Обработка: удаление артефактов-

Трэклист:


A1 Recuerdos De La Alhambra
(Francisco Tarrega)
A2 Tonadilla
(Enrique Granados)
A3 Estudio
(Fernando Sor)
A4 Romanza
(Manuel Ponce, Niccolo Paganini)
B1 Sevilla
(Isaac Albeniz)
B2 Granada
(Isaac Albeniz)
B3 Zambra Dranadina
(Isaac Albeniz)
B4 Capricho Diabolica
(Mario Castelnuovo-Tedesco)

Конверт, наклейки:


Dynamic Range Meter (DR17):

foobar2000 1.1.3 / Dynamic Range Meter 1.1.1log date: 2018-01-20 09:45:47
--------------------------------------------------------------------------------Statistics for: ?-01. Andres Segovia - My Favorite Works (1987)Number of samples: 126942615Duration: 47:59--------------------------------------------------------------------------------
Left Right
Peak Value: -0.11 dB --- -0.11 dBAvg RMS: -20.13 dB --- -20.38 dBDR channel: 16.44 dB --- 16.76 dB--------------------------------------------------------------------------------
Official DR Value: DR17
Samplerate: 44100 HzChannels: 2Bits per sample: 24Bitrate: 1308 kbpsCodec: FLAC================================================================================

Уровень записи, спектр, АЧХ:

.cue txt:

REM GENRE "Classical, Classical Guitar"REM DATE "1987"REM COMMENT "Vinyl, LP, MCA Records, Inc. – 254 972-1, Germany"TITLE "My Favourite Works"PERFORMER "Andres Segovia"FILE "01. Andres Segovia - My Favorite Works (1987).flac" WAVE  TRACK 01 AUDIO    TITLE "A1 Recuerdos De La Alhambra"    INDEX 01 00:00:00  TRACK 02 AUDIO    TITLE "A2 Tonadilla"    INDEX 01 05:14:40  TRACK 03 AUDIO    TITLE "A3 Estudio"    INDEX 01 09:57:23  TRACK 04 AUDIO    TITLE "A4 Romanza"    INDEX 01 19:36:30  TRACK 05 AUDIO    TITLE "B1 Sevilla"    INDEX 01 24:35:24  TRACK 06 AUDIO    TITLE "B2 Granada"    INDEX 01 28:41:74  TRACK 07 AUDIO    TITLE "B3 Zambra Dranadina"    INDEX 01 33:58:02  TRACK 08 AUDIO    TITLE "B4 Capricho Diabolica"    INDEX 01 38:49:40



Ви не можете починати теми
Ви не можете відповідати на повідомлення
Ви не можете редагувати свої повідомлення
Ви не можете видаляти свої повідомлення
Ви не можете голосувати в опитуваннях
Ви не можете прикріплювати файли до повідомлень
Ви можете скачувати файли