(Classical, Violin) [LP] [24/48] Beethoven. Violin Concerto In D Major, Op. 61, recorded 1951 (D. Oistrakh & U.S.S.R. State Orchestra, cond. A. Gauk) - 1955, FLAC (image+.cue)


Статистика роздачі [Оновити пиров]
Розмір:  435 MB   |    Зареєстрований:  1 рік   |    Скачано:  0 раз

Повного джерела не було: Ніколи


(Classical, Violin) [LP] [24/48] Beethoven. Violin Concerto In D Major, Op. 61, recorded 1951 (D. Oistrakh & U.S.S.R. State Orchestra, cond. A. Gauk) - 1955, FLAC (image+.cue)

Beethoven. Violin Concerto In D Major, Op. 61, recorded 1951
David Oistrakh & U.S.S.R. State Orchestra, conductor Alexander Gauk (1955)
- Жанр: Classical
Носитель: LP
Год выпуска: 1955
Лейбл: VOX– MOPL 516.150
Страна-производитель: US
Аудио кодек: FLAC
Тип рипа: image+.cue
Формат записи: 24/48
Формат раздачи: 24/48
Продолжительность: 00:41:15
Тэги в .cue: прописаны
Источник оцифровки: 63yura63
Код класса состояния винила: VG
Устройство воспроизведения: Audio-Techica At-Lp-120usb/78rpm
Головка звукоснимателя: At-Art9 J323
Предварительный усилитель: Luxman E-200
АЦП: Creativ Labs
Программа-оцифровщик: Adobe Audition CS6
Обработка: без обработки-

Трэклист & Исполнители:

Ludwig van Beethoven (1770 - 1827)
A Allegro Ma Non Troppo
B1 Larghetto
B2 Rondo-Credits
Conductor – Alexander Gauk
Liner Notes – Charles Stanley
Orchestra – Russian State Symphony Orchestra (tracks: Moscow State Symphony Orchestra)
Violin – David Oistrakh
-Notes
Vox productions, Inc., New York, N.Y. 10017
Printed in U.S.A.
Notes in English.
Re-mastered for Stereo

Конверт, наклейки:



Dynamic Range Meter (DR12):

foobar2000 1.1.3 / Dynamic Range Meter 1.1.1log date: 2018-02-01 13:12:36
--------------------------------------------------------------------------------Analyzed: David Oistrakh / Beethoven, Violin Concerto In D Major, Op. 61--------------------------------------------------------------------------------
DR Peak RMS Duration Track--------------------------------------------------------------------------------DR12 0.00 dB -17.01 dB 23:41 ?-A Allegro Ma Non TroppoDR12 -0.83 dB -18.98 dB 9:59 ?-B1 LarghettoDR11 0.00 dB -16.27 dB 7:35 ?-B2 Rondo--------------------------------------------------------------------------------
Number of tracks: 3Official DR value: DR12
Samplerate: 48000 HzChannels: 2Bits per sample: 24Bitrate: 1469 kbpsCodec: FLAC================================================================================

Уровень записи, спектр, АЧХ:

.cue txt:

REM GENRE "Classical"REM DATE "1955"REM COMMENT "Vinyl, LP, Label:VOX– MOPL 516.150, US"TITLE "Beethoven, Violin Concerto In D Major, Op. 61"PERFORMER "David Oistrakh"FILE "01. Side 1.flac" WAVE  TRACK 01 AUDIO    TITLE "A Allegro Ma Non Troppo"    INDEX 01 00:00:00FILE "02. Side 2.flac" WAVE  TRACK 02 AUDIO    TITLE "B1 Larghetto"    INDEX 01 00:00:00  TRACK 03 AUDIO    TITLE "B2 Rondo"    INDEX 01 09:59:13
-



Ви не можете починати теми
Ви не можете відповідати на повідомлення
Ви не можете редагувати свої повідомлення
Ви не можете видаляти свої повідомлення
Ви не можете голосувати в опитуваннях
Ви не можете прикріплювати файли до повідомлень
Ви можете скачувати файли