(Classical) [LP] [24/96] Haydn (Гайдн) - B-Dur Hob XXII 14 Harmoniemesse (Westminster Choir, New York Philharmonic, J. Blegen, F. von Stade, K. Riegel, S. Este, cond. L. Bernstein) - 1978, FLAC (image+.cue)


Статистика роздачі [Оновити пиров]
Розмір:  886 MB   |    Зареєстрований:  1 рік   |    Скачано:  0 раз

Повного джерела не було: Ніколи


(Classical) [LP] [24/96] Haydn (Гайдн) - B-Dur Hob XXII 14 Harmoniemesse (Westminster Choir, New York Philharmonic, J. Blegen, F. von Stade, K. Riegel, S. Este, cond. L. Bernstein) - 1978, FLAC (image+.cue)

Й. Гайдн – Месса Си Бемоль Мажор "Harmoniemesse" (1978)- Жанр: Classical
Носитель: LP
Год выпуска: 1978
Лейбл: Мелодия – 33 C 10—10075-76
Страна-производитель: USSR
Аудио кодек: FLAC
Тип рипа: image+.cue
Формат записи: 24/192
Формат раздачи: 24/96
Продолжительность: 00:44:49
Тэги в .cue: прописаны
Источник оцифровки: автором раздачи
Код класса состояния винила: VG
Устройство воспроизведения: Электроника ЭП 017С
Головка звукоснимателя: ГЗМ – 028 (Корвет)
Предварительный усилитель: AMX - 100 (LTO®)
АЦП: [email protected]
Программа-оцифровщик: Adobe Audition CS6 5.0.2
Обработка: удаление артефактов-

Трэклист и исполнители:


Joseph Haydn (1732 - 1809)
Трэклист:
A1 1. Kyrie
A2 2. Gloria
B1 3. Credo
B2 4. Sanctus
B3 5. Benedictus
B4 6. Agnus Dei-Bass Vocals, Baritone Vocals [Bass-Baritone] – Simon Estes
Choir – Westminster Choir
Composed By – Haydn
Conductor – Bernstein
Directed By [Westminster Choir] – John Flummerfeld
Mezzo-soprano Vocals – Frederica von Stade
Orchestra – New York Philharmonic
Soprano Vocals – Judith Blegen
Tenor Vocals – Kenneth Riegel
Producer – John McClure

Dynamic Range Meter (DR13):

foobar2000 1.1.3 / Dynamic Range Meter 1.1.1log date: 2018-03-04 10:37:58
--------------------------------------------------------------------------------Analyzed: Westminster Choir, New York Philharmonic,soloists, cond. L. Bernstein / B-Dur Hob XXII 14 Harmoniemesse--------------------------------------------------------------------------------
DR Peak RMS Duration Track--------------------------------------------------------------------------------DR13 -0.27 dB -18.20 dB 8:48 ?-A1 1. KyrieDR13 -0.15 dB -18.07 dB 11:41 ?-A2 2. GloriaDR13 -1.37 dB -18.88 dB 10:56 ?-B1 3. CredoDR13 -1.27 dB -19.90 dB 3:29 ?-B2 4. SanctusDR14 -0.91 dB -19.99 dB 4:09 ?-B3 5. BenedictusDR13 -0.15 dB -18.63 dB 5:47 ?-B4 6. Agnus Dei--------------------------------------------------------------------------------
Number of tracks: 6Official DR value: DR13
Samplerate: 96000 HzChannels: 2Bits per sample: 24Bitrate: 2742 kbpsCodec: FLAC================================================================================

Уровень записи, спектр, АЧХ:

Конверт, наклейки:


.cue txt:

REM GENRE "Classical"REM DATE "1978"REM COMMENT "Vinyl, LP, Album, Reissue, Мелодия – 33 C 10—10075-76, USSR, Licensed From – Columbia Masterworks"TITLE "B-Dur Hob XXII 14 Harmoniemesse"PERFORMER "Westminster Choir, New York Philharmonic,soloists, cond. L. Bernstein"FILE "01. Side 1.flac" WAVE  TRACK 01 AUDIO    TITLE "A1 1. Kyrie"    INDEX 01 00:00:00  TRACK 02 AUDIO    TITLE "A2 2. Gloria"    INDEX 01 08:47:46FILE "02. Side 2.flac" WAVE  TRACK 03 AUDIO    TITLE "B1 3. Credo"    INDEX 01 00:00:00  TRACK 04 AUDIO    TITLE "B2 4. Sanctus"    INDEX 01 10:56:25  TRACK 05 AUDIO    TITLE "B3 5. Benedictus"    INDEX 01 14:25:23  TRACK 06 AUDIO    TITLE "B4 6. Agnus Dei"    INDEX 01 18:33:69
- -



Ви не можете починати теми
Ви не можете відповідати на повідомлення
Ви не можете редагувати свої повідомлення
Ви не можете видаляти свої повідомлення
Ви не можете голосувати в опитуваннях
Ви не можете прикріплювати файли до повідомлень
Ви можете скачувати файли