(Classical, Baroque) [24/96] J. S. Bach - Organ Mass (Harry Grodberg. Organ of the Great Hall of the Moscow Conservatory. Recorded 1972) - 1981, FLAC (image+.cue)


Статистика роздачі [Оновити пиров]
Розмір:  1,87 GB   |    Зареєстрований:  1 рік   |    Скачано:  0 раз

Повного джерела не було: Ніколи


(Classical, Baroque) [24/96] J. S. Bach - Organ Mass (Harry Grodberg. Organ of the Great Hall of the Moscow Conservatory. Recorded 1972) - 1981, FLAC (image+.cue)

И. С. Бах - Гарри Гродберг - Органная месса(1981)
Орган Большого зала Московской консерватории. Запись 1972 года
- Жанр: Classical, Baroque
Носитель: 2хLP
Год выпуска: 1981
Лейбл: Мелодия – СМ03369—72
Страна-производитель: USSR
Аудио кодек: FLAC
Тип рипа: image+.cue
Формат записи: 24/192
Формат раздачи: 24/96 (mono/stereo)
Общая продолжительность: 01:35:42
Тэги в .cue: прописаны
Источник оцифровки: автором раздачи
Код класса состояния винила: VG
Устройство воспроизведения: Электроника ЭП 017С
Головка звукоснимателя: ГЗМ – 028 (Корвет)
Предварительный усилитель: AMX - 100 (LTO®)
АЦП: [email protected]
Программа-оцифровщик: Adobe Audition CS6 5.0.2
Обработка: удаление артефактов-

Трэклист, исполнитель:


Johann Sebastian Bach (1685 - 1750)
A1 1. Praeludium In E-Flat Major, B. 552
Kyrie:
A2 2. Kyrie, Gott Vater In Ewigkett, B. 669
A3 3. Christe, Aller Welt Trost, B. 670
A4 4. Kyrie, Gott Heiliger Geist, B. 671
B1 5. Kyrie, Gott Vater In Ewigkeit, B. 672
B2 6. Christe, Aller Welt Trost, B. 673
B3 7. Kyrie, Gott Heiliger Geist, B. 674
Gloria:
B4 8. Allein Gott In Der Hoh Sei Ehr, B. 675
B5 9. Allein Gott In Der Hoh Sei Ehr, B. 676
B6 10. Fughetta Super: Allein Gott In Der Hoh Sei Ehr, B. 677
Die Zehn Gebote:
B7 11. Dies Sind Die Heil Gen Zehn Gebot', B 678
B8 12. Fughetta Super: Dies Sind Die Heil Gen Zehn Gebot', B 679
Der Glaube:
B9 13. Wir Glauben All' An Einen Gott, B. 680
C1 14. Fughetta Super: Wir Glauben All' An Einen Gott, B. 681
Das Vater Unser:
C2 15. Vater Unser Im Himmelreich, B. 682
C3 16. Vater Unser Im Himmelreich, B. 683
Die Taufe:
C4 17. Christ, Unser Herr, Zum Jordan Kam, B. 684
C5 18. Christ, Unser Herr, Zum Jordan Kam, B. 685
Die Busse:
C6 19. Aus Tiefer Not Schrei' Ich Zu Dir, B. 686
D1 20. Aus Tiefer Not Schrei' Ich Zu Dir, B. 687
Das Abendmahl:
D2 21. Jesus Christus, Unser Heiland, B. 688
D3 22. Fuga Super: Jesus Christus, Unser Heiland, B. 689
D4 23. Fuga In E-Flat Major, B. 552
Harry Grodberg. Organ of the Great Hall of the Moscow Conservatory.
Recorded 1972

Конверт, наклейки:




Dynamic Range Meter (DR9-DR10):

foobar2000 1.1.3 / Dynamic Range Meter 1.1.1log date: 2018-03-05 19:14:45
--------------------------------------------------------------------------------Analyzed: Harry Grodberg / J. S. Bach - Organ Mass--------------------------------------------------------------------------------
DR Peak RMS Duration Track--------------------------------------------------------------------------------DR10 -0.15 dB -12.52 dB 9:54 ?-A1 1. Praeludium In E-Flat Major, B. 552DR9 -3.97 dB -14.98 dB 3:43 ?-A2 2. Kyrie, Gott Vater In Ewigkett, B. 669DR9 -3.44 dB -15.24 dB 4:33 ?-A3 3. Christe, Aller Welt Trost, B. 670DR8 -0.42 dB -11.76 dB 4:24 ?-A4 4. Kyrie, Gott Heiliger Geist, B. 671DR9 -5.83 dB -19.62 dB 2:07 ?-B1 5. Kyrie, Gott Vater In Ewigkeit, B. 672DR9 -7.99 dB -20.45 dB 1:51 ?-B2 6. Christe, Aller Welt Trost, B. 673DR9 -3.94 dB -17.01 dB 1:36 ?-B3 7. Kyrie, Gott Heiliger Geist, B. 674DR11 -6.89 dB -20.95 dB 3:44 ?-B4 8. Allein Gott In Der Hoh Sei Ehr, B. 675DR10 -3.78 dB -16.33 dB 4:46 ?-B5 9. Allein Gott In Der Hoh Sei Ehr, B. 676DR9 -3.39 dB -16.57 dB 1:10 ?-B6 10. Fughetta Super: Allein Gott In Der Hoh Sei Ehr, B. 677DR10 -0.15 dB -13.52 dB 4:41 ?-B7 11. Dies Sind Die Heil Gen Zehn Gebot', B 678DR10 -2.85 dB -16.06 dB 2:03 ?-B8 12. Fughetta Super: Dies Sind Die Heil Gen Zehn Gebot', B 679DR9 -0.15 dB -10.99 dB 3:30 ?-0201B9 13. Wir Glauben All' An Einen Gott, B. 680--------------------------------------------------------------------------------
Number of tracks: 13Official DR value: DR9
Samplerate: 96000 HzChannels: 2Bits per sample: 24Bitrate: 2762 kbpsCodec: FLAC================================================================================-foobar2000 1.1.3 / Dynamic Range Meter 1.1.1log date: 2018-03-05 19:16:00
--------------------------------------------------------------------------------Analyzed: Harry Grodberg / J. S. Bach - Organ Mass--------------------------------------------------------------------------------
DR Peak RMS Duration Track--------------------------------------------------------------------------------DR9 -0.15 dB -11.07 dB 1:31 ?-C1 14. Fughetta Super: Wir Glauben All' An Einen Gott, B. 681DR11 -4.04 dB -17.27 dB 7:27 ?-C2 15. Vater Unser Im Himmelreich, B. 682DR9 -5.70 dB -18.11 dB 1:45 ?-C3 16. Vater Unser Im Himmelreich, B. 683DR10 -3.68 dB -16.69 dB 4:13 ?-C4 17. Christ, Unser Herr, Zum Jordan Kam, B. 684DR10 -5.97 dB -19.12 dB 1:20 ?-C5 18. Christ, Unser Herr, Zum Jordan Kam, B. 685DR9 -0.15 dB -11.07 dB 8:17 ?-C6 19. Aus Tiefer Not Schrei' Ich Zu Dir, B. 686DR9 -1.58 dB -12.77 dB 7:24 ?-D1 20. Aus Tiefer Not Schrei' Ich Zu Dir, B. 687DR11 -4.20 dB -17.78 dB 3:33 ?-D2 21. Jesus Christus, Unser Heiland, B. 688DR9 -4.04 dB -15.99 dB 4:57 ?-D3 22. Fuga Super: Jesus Christus, Unser Heiland, B. 689DR9 -0.15 dB -12.33 dB 7:15 ?-D4 23. Fuga In E-Flat Major, B. 552--------------------------------------------------------------------------------
Number of tracks: 10Official DR value: DR10
Samplerate: 96000 HzChannels: 2Bits per sample: 24Bitrate: 2800 kbpsCodec: FLAC================================================================================

Уровень записи, спектр, АЧХ:


.cue txt:

REM GENRE "Classical, Baroque"REM DATE "1981"REM COMMENT "2xVinyl, LP, Album, Мелодия – СМ03369—72, USSR"TITLE "J. S. Bach - Organ Mass"PERFORMER "Harry Grodberg"FILE "01. Сторона 1(4).flac" WAVE  TRACK 01 AUDIO    TITLE "A1 1. Praeludium In E-Flat Major, B. 552"    INDEX 01 00:00:00  TRACK 02 AUDIO    TITLE "A2 2. Kyrie, Gott Vater In Ewigkett, B. 669"    INDEX 01 09:53:64  TRACK 03 AUDIO    TITLE "A3 3. Christe, Aller Welt Trost, B. 670"    INDEX 01 13:36:32  TRACK 04 AUDIO    TITLE "A4 4. Kyrie, Gott Heiliger Geist, B. 671"    INDEX 01 18:09:46FILE "02. Сторона 2(4).flac" WAVE  TRACK 05 AUDIO    TITLE "B1 5. Kyrie, Gott Vater In Ewigkeit, B. 672"    INDEX 01 00:00:00  TRACK 06 AUDIO    TITLE "B2 6. Christe, Aller Welt Trost, B. 673"    INDEX 01 02:07:32  TRACK 07 AUDIO    TITLE "B3 7. Kyrie, Gott Heiliger Geist, B. 674"    INDEX 01 03:58:15  TRACK 08 AUDIO    TITLE "B4 8. Allein Gott In Der Hoh Sei Ehr, B. 675"    INDEX 01 05:34:43  TRACK 09 AUDIO    TITLE "B5 9. Allein Gott In Der Hoh Sei Ehr, B. 676"    INDEX 01 09:18:18  TRACK 10 AUDIO    TITLE "B6 10. Fughetta Super: Allein Gott In Der Hoh Sei Ehr, B. 677"    INDEX 01 14:04:09  TRACK 11 AUDIO    TITLE "B7 11. Dies Sind Die Heil Gen Zehn Gebot', B 678"    INDEX 01 15:14:05  TRACK 12 AUDIO    TITLE "B8 12. Fughetta Super: Dies Sind Die Heil Gen Zehn Gebot', B 679"    INDEX 01 19:55:17  TRACK 13 AUDIO    TITLE "0201B9 13. Wir Glauben All' An Einen Gott, B. 680"    INDEX 01 21:58:12-REM GENRE "Classical, Baroque"REM DATE "1981"REM COMMENT "2xVinyl, LP, Album, Мелодия – СМ03369—72, USSR"TITLE "J. S. Bach - Organ Mass"PERFORMER "Harry Grodberg"FILE "03. Сторона 3(4).flac" WAVE  TRACK 01 AUDIO    TITLE "C1 14. Fughetta Super: Wir Glauben All' An Einen Gott, B. 681"    INDEX 01 00:00:00  TRACK 02 AUDIO    TITLE "C2 15. Vater Unser Im Himmelreich, B. 682"    INDEX 01 01:30:71  TRACK 03 AUDIO    TITLE "C3 16. Vater Unser Im Himmelreich, B. 683"    INDEX 01 08:58:06  TRACK 04 AUDIO    TITLE "C4 17. Christ, Unser Herr, Zum Jordan Kam, B. 684"    INDEX 01 10:42:59  TRACK 05 AUDIO    TITLE "C5 18. Christ, Unser Herr, Zum Jordan Kam, B. 685"    INDEX 01 14:55:59  TRACK 06 AUDIO    TITLE "C6 19. Aus Tiefer Not Schrei' Ich Zu Dir, B. 686"    INDEX 01 16:15:25FILE "04. Сторона 4(4).flac" WAVE  TRACK 07 AUDIO    TITLE "D1 20. Aus Tiefer Not Schrei' Ich Zu Dir, B. 687"    INDEX 01 00:00:00  TRACK 08 AUDIO    TITLE "D2 21. Jesus Christus, Unser Heiland, B. 688"    INDEX 01 07:23:56  TRACK 09 AUDIO    TITLE "D3 22. Fuga Super: Jesus Christus, Unser Heiland, B. 689"    INDEX 01 10:56:61  TRACK 10 AUDIO    TITLE "D4 23. Fuga In E-Flat Major, B. 552"    INDEX 01 15:53:53
- -



Ви не можете починати теми
Ви не можете відповідати на повідомлення
Ви не можете редагувати свої повідомлення
Ви не можете видаляти свої повідомлення
Ви не можете голосувати в опитуваннях
Ви не можете прикріплювати файли до повідомлень
Ви можете скачувати файли