(Classical, Baroque) [LP] [24/96] Органная музыка - H. Purcell, T. Giordani, J. S. Bach, G. Caccini, M. Reger, G. Fauré, Ā. Skulte, J. Guillou - 1980, FLAC (image+.cue)


Статистика роздачі [Оновити пиров]
Розмір:  801 MB   |    Зареєстрований:  1 рік   |    Скачано:  0 раз

Повного джерела не було: Ніколи


(Classical, Baroque) [LP] [24/96] Органная музыка - H. Purcell, T. Giordani, J. S. Bach, G. Caccini, M. Reger, G. Fauré, Ā. Skulte, J. Guillou - 1980, FLAC (image+.cue)

Органная музыка (1980)
Большой Орган Рижского Домского Концертного Зала
- Жанр: Classical, Baroque
Носитель: LP
Год выпуска: 1980
Лейбл: Мелодия – С10 - 06761-62
Страна-производитель: USSR
Аудио кодек: FLAC
Тип рипа: image+.cue
Формат записи: 24/192
Формат раздачи: 24/96
Продолжительность: 00:41:08
Тэги в .cue: прописаны
Источник оцифровки: автором раздачи
Код класса состояния винила: VG
Устройство воспроизведения: Электроника ЭП 017С
Головка звукоснимателя: ГЗМ – 028 (Корвет)
Предварительный усилитель: AMX - 100 (LTO®)
АЦП: [email protected]
Программа-оцифровщик: Adobe Audition CS6 5.0.2
Обработка: удаление артефактов-

Трэклист, исполнители:


A1 Г. Перселл - Alter Psalm A Dur = Старинный Псалом Ля Мажор
A2 Т. Джордани - Aria «Caro Mio Ben» = Ария «Caro Mio Ben»
A3 И. С. Бах - Fuga G-Moll BWV 578 = Фуга Соль Минор BWV 680
A4 Дж. Каччини - Amarillen = Amarilli
A5 И. С. Бах - «Der Glaube» Aus Der Orgel-Messe = Хоральная Прелюдия «Wir Glauben All’an Einen Gott», BWV 578
B1 М. Регер - Benedictus Op. 59 Nr. 9 = Benedictus Соч. 59, № 9
B2 Г. Форе - Erwachen = Пробуждение
B3 М. Регер - Scherco D-Moll Op. 65 = Скерцо Ре Минор, Соч. 65
B4 А. Скулте - Arieta = Arietta
B5 Ж. Гию - Saga Nr. 1 = Сага № 1-Conductor – Э. Кунле (tracks: B4), Ю. Реентович (tracks: B2)
Ensemble – Ансамбль Скрипачей «Кантилена» (tracks: B4),
Ансамбль Скрипачей Большого Театра СССР (tracks: B2)
Mezzo-soprano Vocals – Л. Дайне (tracks: A4), И. Архипова (tracks: A2)
Organ – А. Веберзинке (tracks: A5), Б. Миезе (tracks: B4, B5), Дж. Далтон (tracks: A1),
Е. Лисицина (tracks: B3), П. Сиполниекс (tracks: A2, A4, B1, B2), Р. Уусвяли (tracks: A3)

Конверт, наклейки:


Dynamic Range Meter (DR11):

foobar2000 1.1.3 / Dynamic Range Meter 1.1.1log date: 2018-03-06 16:00:35
--------------------------------------------------------------------------------Analyzed: Various Artists / Большой Орган Рижского Домского Концертного Зала--------------------------------------------------------------------------------
DR Peak RMS Duration Track--------------------------------------------------------------------------------DR10 -9.02 dB -22.91 dB 3:48 ?-A1 Г. Перселл - Старинный Псалом Ля МажорDR12 -0.15 dB -16.96 dB 4:12 ?-A2 Т. Джордани - Ария «Caro Mio Ben»DR9 -1.91 dB -13.22 dB 4:49 ?-A3 И. С.Бах - Фуга Соль Минор BWV 680DR12 -1.45 dB -19.17 dB 3:59 ?-A4 Дж. Каччини - AmarilliDR10 -0.15 dB -14.04 dB 3:13 ?-A5 И. С.Бах - Хоральная Прелюдия «Wir Glauben All’an Einen Gott», BWV 578DR12 -3.00 dB -21.52 dB 5:17 ?-B1 М. Регер - Benedictus Соч. 59, № 9DR11 -0.71 dB -17.71 dB 3:52 ?-B2 Г. Форе - ПробуждениеDR10 -4.02 dB -17.83 dB 2:49 ?-B3 М. Регер - Скерцо Ре Минор, Соч. 65DR11 -0.15 dB -16.54 dB 2:52 ?-B4 А. Скулте - AriettaDR13 -1.64 dB -20.08 dB 6:18 ?-B5 Ж. Гию - Сага № 1--------------------------------------------------------------------------------
Number of tracks: 10Official DR value: DR11
Samplerate: 96000 HzChannels: 2Bits per sample: 24Bitrate: 2655 kbpsCodec: FLAC================================================================================

Уровень записи, спектр, АЧХ:

.cue txt:

REM GENRE "Classical, Baroque"REM DATE "1980"REM COMMENT "Vinyl, LP, Album, Мелодия – С10 - 06761-62, USSR"TITLE "Большой Орган Рижского Домского Концертного Зала"PERFORMER "Various Artists"FILE "01. Сторона 1.flac" WAVE  TRACK 01 AUDIO    TITLE "A1 Г. Перселл - Старинный Псалом Ля Мажор"    PERFORMER "Дж. Далтон"    INDEX 01 00:00:00  TRACK 02 AUDIO    TITLE "A2 Т. Джордани - Ария «Caro Mio Ben»"    PERFORMER "И. Архипова"    INDEX 01 03:48:04  TRACK 03 AUDIO    TITLE "A3 И. С.Бах - Фуга Соль Минор BWV 680"    PERFORMER "Р. Уусвяли"    INDEX 01 07:59:58  TRACK 04 AUDIO    TITLE "A4 Дж. Каччини - Amarilli"    PERFORMER "Л. Дайне"    INDEX 01 12:48:44  TRACK 05 AUDIO    TITLE "A5 И. С.Бах - Хоральная Прелюдия «Wir Glauben All’an Einen Gott», BWV 578"    PERFORMER "А. Веберзинке"    INDEX 01 16:47:30FILE "02. Сторона 2.flac" WAVE  TRACK 06 AUDIO    TITLE "B1 М. Регер - Benedictus Соч. 59, № 9"    PERFORMER "П. Сиполниекс"    INDEX 01 00:00:00  TRACK 07 AUDIO    TITLE "B2 Г. Форе - Пробуждение"    PERFORMER "П. Сиполниекс, Ансамбль Скрипачей Большого Театра СССР, дир. Ю. Реентович"    INDEX 01 05:16:63  TRACK 08 AUDIO    TITLE "B3 М. Регер - Скерцо Ре Минор, Соч. 65"    PERFORMER "Е. Лисицина"    INDEX 01 09:09:21  TRACK 09 AUDIO    TITLE "B4 А. Скулте - Arietta"    PERFORMER "Б. Миезе, Ансамбль Скрипачей «Кантилена», дир. Э. Кунле"    INDEX 01 11:58:48  TRACK 10 AUDIO    TITLE "B5 Ж. Гию - Сага № 1"    PERFORMER "Б. Миезе"    INDEX 01 14:50:16
- -



Ви не можете починати теми
Ви не можете відповідати на повідомлення
Ви не можете редагувати свої повідомлення
Ви не можете видаляти свої повідомлення
Ви не можете голосувати в опитуваннях
Ви не можете прикріплювати файли до повідомлень
Ви можете скачувати файли