(Classical, Romantic) [LP] [Mono] [24/96] Ludwig van Beethoven – Klaviersonate C-Dur Op. 53/Klaviersonate C-Moll Op. 111 (Wladimir Aschkenasi / В.Ашкенази) - 1964, FLAC (image+.cue)


Статистика роздачі [Оновити пиров]
Розмір:  857 MB   |    Зареєстрований:  1 рік   |    Скачано:  0 раз

Повного джерела не було: Ніколи


(Classical, Romantic) [LP] [Mono] [24/96] Ludwig van Beethoven – Klaviersonate C-Dur Op. 53/Klaviersonate C-Moll Op. 111 (Wladimir Aschkenasi / В.Ашкенази) - 1964, FLAC (image+.cue)

Ludwig van Beethoven (1964)
Klaviersonate C-Dur Op. 53/Klaviersonate C-Moll Op. 111
Wladimir Aschkenasi
- Жанр: Classical, Romantic
Носитель: LP
Год выпуска: 1964
Лейбл: ETERNA – 8 20 032
Страна-производитель: GDR
Аудио кодек: FLAC
Тип рипа: image+.cue
Формат записи: 24/192 (dual mono)
Формат раздачи: 24/96 (dual mono)
Продолжительность: 00:44:50
Тэги в .cue: прописаны
Источник оцифровки: автором раздачи
Код класса состояния винила: VG(-)
Устройство воспроизведения: Электроника ЭП 017С
Головка звукоснимателя: ГЗМ – 028 (Корвет)
Предварительный усилитель: AMX - 100 (LTO®)
АЦП: [email protected]
Программа-оцифровщик: Adobe Audition CS6 5.0.2
Обработка: удаление артефактов, частичная реставрация-

Трэклист:


Klaviersonate C-Dur Op. 53 (Waldstein-Sonate)
A1 Allegro Con Brio
A2 Introduzione: Adagio Molto
A3 Rondo: Allegretto Moderato - Prestissimo
Klaviersonate C-Moll Op. 111
B1 Maestoso - Allegro Con Brio Ed Appassionato
B2 Arietta: Adagio Molto Semplice E Cantabile
Composed By – Ludwig van Beethoven
Piano – Wladimir Aschkenasi

Конверт, наклейки:


Dynamic Range Meter (DR13):

foobar2000 1.1.3 / Dynamic Range Meter 1.1.1log date: 2018-03-06 18:25:22
--------------------------------------------------------------------------------Analyzed: Wladimir Aschkenasi / Ludwig van Beethoven – Klaviersonate--------------------------------------------------------------------------------
DR Peak RMS Duration Track--------------------------------------------------------------------------------DR13 -0.15 dB -19.18 dB 8:02 ?-A1 Allegro Con BrioDR13 -9.87 dB -31.04 dB 1:19 ?-A2 Introduzione: Adagio MoltoDR13 -1.81 dB -20.20 dB 11:14 ?-A3 Rondo: Allegretto Moderato - PrestissimoDR13 -1.09 dB -18.97 dB 7:01 ?-B1 Maestoso - Allegro Con Brio Ed AppassionatoDR14 -0.15 dB -20.80 dB 17:15 ?-B2 Arietta: Adagio Molto Semplice E Cantabile--------------------------------------------------------------------------------
Number of tracks: 5Official DR value: DR13
Samplerate: 96000 HzChannels: 2Bits per sample: 24Bitrate: 2681 kbpsCodec: FLAC================================================================================

Уровень записи, спектр, АЧХ:

.cue txt:

REM GENRE "Classical, Romantic"REM DATE "1964"REM COMMENT "Vinyl, LP, Mono, ETERNA – 8 20 032, GDR"TITLE "Ludwig van Beethoven – Klaviersonate"PERFORMER "Wladimir Aschkenasi"FILE "01. Сторона 1.flac" WAVE  TRACK 01 AUDIO    TITLE "A1 Allegro Con Brio"    INDEX 01 00:00:00  TRACK 02 AUDIO    TITLE "A2 Introduzione: Adagio Molto"    INDEX 01 08:01:53  TRACK 03 AUDIO    TITLE "A3 Rondo: Allegretto Moderato - Prestissimo"    INDEX 01 09:20:31FILE "02. Сторона 2.flac" WAVE  TRACK 04 AUDIO    TITLE "B1 Maestoso - Allegro Con Brio Ed Appassionato"    INDEX 01 00:00:00  TRACK 05 AUDIO    TITLE "B2 Arietta: Adagio Molto Semplice E Cantabile"    INDEX 01 07:00:61
- -



Ви не можете починати теми
Ви не можете відповідати на повідомлення
Ви не можете редагувати свої повідомлення
Ви не можете видаляти свої повідомлення
Ви не можете голосувати в опитуваннях
Ви не можете прикріплювати файли до повідомлень
Ви можете скачувати файли