(Classical, Baroque) [LP] [24/96] F. Couperin, J. M. Leclair, G. P. Telemann - Works. Recorded 1972 (\'\'Barocco\'\' Ensemble/Ансамбль \'\'Барокко\'\') - 1981, FLAC (image+.cue)


Статистика роздачі [Оновити пиров]
Розмір:  1,03 GB   |    Зареєстрований:  1 рік   |    Скачано:  0 раз

Повного джерела не було: Ніколи


(Classical, Baroque) [LP] [24/96] F. Couperin, J. M. Leclair, G. P. Telemann - Works. Recorded 1972 (\'\'Barocco\'\' Ensemble/Ансамбль \'\'Барокко\'\') - 1981, FLAC (image+.cue)

Камерный ансамбль ''Барокко'' (1981)
Запись 1972 года
- Жанр: Classical, Baroque
Носитель: LP
Год выпуска: 1972
Лейбл: Мелодия – СМ 03209-10
Страна-производитель: USSR
Аудио кодек: FLAC
Тип рипа: image+.cue
Формат записи: 24/192
Формат раздачи: 24/96
Продолжительность: 00:53:32
Тэги в .cue: прописаны
Источник оцифровки: автором раздачи
Код класса состояния винила: VG
Устройство воспроизведения: Электроника ЭП 017С
Головка звукоснимателя: ГЗМ – 028 (Корвет)
Предварительный усилитель: AMX - 100 (LTO®)
АЦП: [email protected]
Программа-оцифровщик: Adobe Audition CS6 5.0.2
Обработка: удаление артефактов-

Трэклист, исполнители:


Султанша, Соната Для 4-х Инструментов И Клавесина Ре Минор
Composed By – Ф. Куперен
Edited By – А. Гастуэ
A1.1 1. (Gravement)
A1.2 2. (Gayment)
A1.3 3. Air Tendrement (Gravement)
A1.4 4. Légérement. Vivement
Соната № 8 Для Флейты, Виолончели И Бассо Континуо Ре Мажор
Composed By – Ж.-М. Леклер
Edited By – Р. Эйтнер
A2.1 1. Adagio
A2.2 2. Allegro
A2.3 3. Sarabande. Largo
A2.4 4. Allegro Assai
Трио-Соната Для Флейты, Гобоя И Бассо Континуо До Минор
Composed By – Г. Ф. Телеман
Edited By – В. Вёль
A3 1. Largo
B1.1 2. Vivace
B1.2 3. Andante
B1.3 4. Allegro
Квартет Для Флейты, Гобоя, Скрипки И Бассо Континуо Ре Минор
Composed By – Г. Ф. Телеман
B2.1 1. Andante
B2.2 2. Vivace
B2.3 3. Largo
B2.4 4. Allegro. Cantabile. Allegro
Cello – Б. Шишкин, Е. Хренов
Flute – А. Поплавский
Harpsichord – А. Соболев
Oboe – А. Корчагин
Violin – И. Попков

Конверт, наклейки:


Dynamic Range Meter (DR12):

foobar2000 1.1.3 / Dynamic Range Meter 1.1.1log date: 2018-03-06 20:26:19
--------------------------------------------------------------------------------Analyzed: ''Barocco'' Ensemble / F. Couperin, J. M. Leclair, G. P. Telemann - Works--------------------------------------------------------------------------------
DR Peak RMS Duration Track--------------------------------------------------------------------------------DR10 -3.29 dB -17.82 dB 3:44 ?-A1.1 1. (Gravement)DR12 -0.15 dB -17.72 dB 2:01 ?-A1.2 2. (Gayment)DR12 -1.59 dB -18.81 dB 2:12 ?-A1.3 3. Air Tendrement (Gravement)DR11 -0.25 dB -15.48 dB 2:09 ?-A1.4 4. Legerement. VivementDR11 -0.15 dB -15.85 dB 3:26 ?-A2.1 1. AdagioDR12 -0.37 dB -16.72 dB 2:42 ?-A2.2 2. AllegroDR12 -3.11 dB -20.62 dB 3:47 ?-A2.3 3. Sarabande. LargoDR12 -1.04 dB -18.06 dB 2:08 ?-A2.4 4. Allegro AssaiDR11 -5.09 dB -21.14 dB 4:14 ?-A3 1. LargoDR12 -4.70 dB -20.36 dB 3:14 ?-B1.1 2. VivaceDR10 -7.81 dB -21.68 dB 2:59 ?-B1.2 3. AndanteDR13 -1.73 dB -18.87 dB 2:42 ?-B1.3 4. AllegroDR11 -3.79 dB -18.45 dB 4:04 ?-B2.1 1. AndanteDR13 -2.17 dB -18.66 dB 4:14 ?-B2.2 2. VivaceDR10 -2.78 dB -16.11 dB 4:49 ?-B2.3 3. LargoDR12 -0.15 dB -16.47 dB 5:05 ?-B2.4 4. Allegro. Cantabile. Allegro--------------------------------------------------------------------------------
Number of tracks: 16Official DR value: DR12
Samplerate: 96000 HzChannels: 2Bits per sample: 24Bitrate: 2685 kbpsCodec: FLAC================================================================================

Уровень записи, спектр, АЧХ:

.cue txt:

REM GENRE "Classical, Baroque"REM DATE "1972"REM COMMENT "Vinyl, LP, Repress, Мелодия – СМ 03209-10, USSR"TITLE "F. Couperin, J. M. Leclair, G. P. Telemann - Works"PERFORMER "''Barocco'' Ensemble"FILE "01. Сторона 1.flac" WAVE  TRACK 01 AUDIO    TITLE "A1.1 1. (Gravement)"    INDEX 01 00:00:00  TRACK 02 AUDIO    TITLE "A1.2 2. (Gayment) "    INDEX 01 03:44:20  TRACK 03 AUDIO    TITLE "A1.3 3. Air Tendrement (Gravement)"    INDEX 01 05:45:03  TRACK 04 AUDIO    TITLE "A1.4 4. Legerement. Vivement"    INDEX 01 07:57:26  TRACK 05 AUDIO    TITLE "A2.1 1. Adagio"    INDEX 01 10:06:15  TRACK 06 AUDIO    TITLE "A2.2 2. Allegro"    INDEX 01 13:32:00  TRACK 07 AUDIO    TITLE "A2.3 3. Sarabande. Largo"    INDEX 01 16:14:35  TRACK 08 AUDIO    TITLE "A2.4 4. Allegro Assai"    INDEX 01 20:01:35  TRACK 09 AUDIO    TITLE "A3 1. Largo"    INDEX 01 22:09:48FILE "02. Сторона 2.flac" WAVE  TRACK 10 AUDIO    TITLE "B1.1 2. Vivace"    INDEX 01 00:00:00  TRACK 11 AUDIO    TITLE "B1.2 3. Andante"    INDEX 01 03:14:12  TRACK 12 AUDIO    TITLE "B1.3 4. Allegro"    INDEX 01 06:13:33  TRACK 13 AUDIO    TITLE "B2.1 1. Andante"    INDEX 01 08:55:36  TRACK 14 AUDIO    TITLE "B2.2 2. Vivace"    INDEX 01 12:59:57  TRACK 15 AUDIO    TITLE "B2.3 3. Largo"    INDEX 01 17:14:00  TRACK 16 AUDIO    TITLE "B2.4 4. Allegro. Cantabile. Allegro"    INDEX 01 22:02:59
- -



Ви не можете починати теми
Ви не можете відповідати на повідомлення
Ви не можете редагувати свої повідомлення
Ви не можете видаляти свої повідомлення
Ви не можете голосувати в опитуваннях
Ви не можете прикріплювати файли до повідомлень
Ви можете скачувати файли