(Classical, Romantic) [LP] [24/96] F. Schubert – Quintet For Two Violins, Viola And Two Cellos In C Major, Op. 163, D. 956 (Lasalle Quartet, Lynn Harrell) - 1982, FLAC (image+.cue)


Статистика роздачі [Оновити пиров]
Розмір:  937 MB   |    Зареєстрований:  1 рік   |    Скачано:  0 раз

Повного джерела не було: Ніколи


(Classical, Romantic) [LP] [24/96] F. Schubert – Quintet For Two Violins, Viola And Two Cellos In C Major, Op. 163, D. 956 (Lasalle Quartet, Lynn Harrell) - 1982, FLAC (image+.cue)

F. Schubert
Quintet For Two Violins, Viola And Two Cellos In C Major, Op. 163, D. 956
Lasalle Quartet, Lynn Harrell (1982)
- Жанр: Classical, Romantic
Носитель: LP
Год выпуска: 1982
Лейбл: Мелодия – С10 17773-74/Licensed From – Polydor International GmbH
Страна-производитель: USSR
Аудио кодек: FLAC
Тип рипа: image+.cue
Формат записи: 24/192
Формат раздачи: 24/96
Продолжительность: 00:49:43
Тэги в .cue: прописаны
Источник оцифровки: автором раздачи
Код класса состояния винила: VG
Устройство воспроизведения: Электроника ЭП 017С
Головка звукоснимателя: ГЗМ – 028 (Корвет)
Предварительный усилитель: AMX - 100 (LTO®)
АЦП: [email protected]
Программа-оцифровщик: Adobe Audition CS6 5.0.2
Обработка: удаление артефактов-

Трэклист, исполнители:


F. Schubert (1897 - 1828)
Quintet For Two Violins, Viola And Two Cellos In C Major, Op. 163, D. 956
A1 Allegro Ma Non Troppo
A2 Adagio
B1 Scherzo. Presto. Trio. Andante Sostenuto
B2 Allegretto-Cello [First Cello] – Lee Fiser
Cello [Second Cello] – Lynn Harrell
Viola – Peter Kamnitzer
Violin [First Violin] – Walter Levin
Violin [Second Violin] – Henry Meyer

Конверт, наклейки:


Dynamic Range Meter (DR16):

foobar2000 1.1.3 / Dynamic Range Meter 1.1.1log date: 2018-03-07 10:31:08
--------------------------------------------------------------------------------Analyzed: Lasalle Quartet, Lynn Harrell / F. Schubert - Quintet For Two Violins, Viola And Two Cellos In C Major, Op. 163, D. 956--------------------------------------------------------------------------------
DR Peak RMS Duration Track--------------------------------------------------------------------------------DR16 -0.15 dB -22.57 dB 15:17 ?-A1 Allegro Ma Non TroppoDR17 -1.10 dB -24.21 dB 13:03 ?-A2 AdagioDR15 -0.15 dB -20.83 dB 12:08 ?-B1 Scherzo. Presto. Trio. Andante SostenutoDR16 -0.15 dB -21.97 dB 9:15 ?-B2 Allegretto--------------------------------------------------------------------------------
Number of tracks: 4Official DR value: DR16
Samplerate: 96000 HzChannels: 2Bits per sample: 24Bitrate: 2633 kbpsCodec: FLAC================================================================================

Уровень записи, спектр, АЧХ:

.cue txt:

REM GENRE "Classical, Romantic"REM DATE "1982"REM COMMENT "Vinyl, LP, Мелодия – С10 17773-74/Licensed From – Polydor International GmbH, USSR"TITLE "F. Schubert - Quintet For Two Violins, Viola And Two Cellos In C Major, Op. 163, D. 956"PERFORMER "Lasalle Quartet, Lynn Harrell"FILE "01. Сторона 1.flac" WAVE  TRACK 01 AUDIO    TITLE "A1 Allegro Ma Non Troppo"    INDEX 01 00:00:00  TRACK 02 AUDIO    TITLE "A2 Adagio"    INDEX 01 15:16:57FILE "02. Сторона 2.flac" WAVE  TRACK 03 AUDIO    TITLE "B1 Scherzo. Presto. Trio. Andante Sostenuto"    INDEX 01 00:00:00  TRACK 04 AUDIO    TITLE "B2 Allegretto"    INDEX 01 12:07:55
- -



Ви не можете починати теми
Ви не можете відповідати на повідомлення
Ви не можете редагувати свої повідомлення
Ви не можете видаляти свої повідомлення
Ви не можете голосувати в опитуваннях
Ви не можете прикріплювати файли до повідомлень
Ви можете скачувати файли