(Classical, Romantic) [LP] [24/96] Chopin - Piano Concerto No. 1 in E Minor, op. 11 (Wladimir Felzman, Moskauer Philharmonie, dir. Boris Khaikin / В.Фельцман, АСО МГФ, Хайкин) - 1975, FLAC (image+.cue)


Статистика роздачі [Оновити пиров]
Розмір:  789 MB   |    Зареєстрований:  1 рік   |    Скачано:  0 раз

Повного джерела не було: Ніколи


(Classical, Romantic) [LP] [24/96] Chopin - Piano Concerto No. 1 in E Minor, op. 11 (Wladimir Felzman, Moskauer Philharmonie, dir. Boris Khaikin / В.Фельцман, АСО МГФ, Хайкин) - 1975, FLAC (image+.cue)

Ф. Шопен
Концерт № 1 Для Фортепиано С Оркестром Ми Минор, Соч. 11
(1977)
Владимир Фельцман
Академический Симфонический Оркестр Московской Государственной Филармонии , Дирижер Борис Хайкин
- Жанр: Classical, Romantic
Носитель: LP
Год выпуска: 1975
Лейбл: Мелодия – 33 С10-06431-32
Страна-производитель: USSR
Аудио кодек: FLAC
Тип рипа: image+.cue
Формат записи: 24/192
Формат раздачи: 24/96
Продолжительность: 00:40:54
Тэги в .cue: прописаны
Источник оцифровки: автором раздачи
Код класса состояния винила: VG
Устройство воспроизведения: Электроника ЭП 017С
Головка звукоснимателя: ГЗМ – 028 (Корвет)
Предварительный усилитель: AMX - 100 (LTO®)
АЦП: [email protected]
Программа-оцифровщик: Adobe Audition CS6 5.0.2
Обработка: удаление артефактов-

Трэклист, исполнители:


A1 Allegro Maestoso
B1 Romanza. Larghetto
B2 Rondo. Vivace-Composed By – Frédéric Chopin
Conductor – Boris Khaikin
Orchestra – Akademisches Sinfonieorchester Der Moskauer Staatlichen Philarmonie
Piano – Vladimir Feltsman

Конверт, наклейки:


Dynamic Range Meter (DR12):

foobar2000 1.1.3 / Dynamic Range Meter 1.1.1log date: 2018-03-07 12:15:46
--------------------------------------------------------------------------------Analyzed: Wladimir Felzman / Piano Concerto No. 1 in E Minor, op. 11--------------------------------------------------------------------------------
DR Peak RMS Duration Track--------------------------------------------------------------------------------DR12 -0.15 dB -16.48 dB 20:17 ?-A1 Allegro MaestosoDR13 -2.37 dB -20.65 dB 10:50 ?-B1 Romanza. LarghettoDR12 -0.15 dB -15.04 dB 9:48 ?-B2 Rondo. Vivace--------------------------------------------------------------------------------
Number of tracks: 3Official DR value: DR12
Samplerate: 96000 HzChannels: 2Bits per sample: 24Bitrate: 2700 kbpsCodec: FLAC================================================================================

Уровень записи, спектр, АЧХ:

.cue txt:

REM GENRE "Classical, Romantic"REM DATE "1975"REM COMMENT "Vinyl, LP, Album, Мелодия – 33 С10-06431-32, USSR"TITLE "Piano Concerto No. 1 in E Minor, op. 11"PERFORMER "Wladimir Felzman"FILE "01. Сторона 1.flac" WAVE  TRACK 01 AUDIO    TITLE "A1 Allegro Maestoso"    INDEX 01 00:00:00FILE "02. Сторона 2.flac" WAVE  TRACK 02 AUDIO    TITLE "B1 Romanza. Larghetto"    INDEX 01 00:00:00  TRACK 03 AUDIO    TITLE "B2 Rondo. Vivace"    INDEX 01 10:49:42
- -



Ви не можете починати теми
Ви не можете відповідати на повідомлення
Ви не можете редагувати свої повідомлення
Ви не можете видаляти свої повідомлення
Ви не можете голосувати в опитуваннях
Ви не можете прикріплювати файли до повідомлень
Ви можете скачувати файли