(blues, blues-rock, chicago blues) [CD] Second Breath (Второе Дыхание) - Save the blues - 2007, FLAC (tracks+.cue), lossless


Статистика роздачі [Оновити пиров]
Розмір:  402 MB   |    Зареєстрований:  6 місяців 20 днів   |    Скачано:  0 раз

Повного джерела не було: Ніколи

by Паночка ®
23-Трав-2018 14:55


(blues, blues-rock, chicago blues) [CD] Second Breath (Второе Дыхание) - Save the blues - 2007, FLAC (tracks+.cue), lossless

Second Breath (Второе Дыхание) / Save the blues
Жанр: blues, blues-rock, chicago blues
Носитель: CD
Страна-производитель диска (релиза): Украина
Год издания: 2007
Издатель (лейбл): Lemma
Номер по каталогу: 07042-2
Страна исполнителя (группы): Украина
Аудиокодек: FLAC (*.flac)
Тип рипа: tracks+.cue
Битрейт аудио: lossless
Продолжительность: 56:28
Источник (релизер): Свой рип
Наличие сканов в содержимом раздачи: да
Треклист:
01. For Katya (4:12)
02. Ain't Got You (4:00)
03. Roadhouse (3:09)
04. Save The Blues (4:33)
05. Sweet Little Sixteen (3:34)
06. Why People Like That (4:14)
07. Mannish Boy (6:08)
08. It Hearts Me Too (5:12)
09. Dixi (4:04)
10. I Like To Walk (5:17)
11. Let Me Love You (4:13)
12. House Is Rocking (2:31)
13. Got My Mojo Working (5:22)

Лог создания рипа

Exact Audio Copy V1.3 from 2. September 2016
EAC extraction logfile from 16. May 2018, 17:03
Second Breath / Save the blues
Used drive : TEAC CD-W524E Adapter: 1 ID: 2
Read mode : SecureUtilize accurate stream : YesDefeat audio cache : YesMake use of C2 pointers : No
Read offset correction : 686Overread into Lead-In and Lead-Out : NoFill up missing offset samples with silence : YesDelete leading and trailing silent blocks : NoNull samples used in CRC calculations : YesUsed interface : Native Win32 interface for Win NT & 2000Gap handling : Appended to previous track
Used output format : User Defined EncoderSelected bitrate : 896 kBit/sQuality : HighAdd ID3 tag : NoCommand line compressor : C:\Program Files\Exact Audio Copy\FLAC\FLAC.EXEAdditional command line options : -8 -V -T "ARTIST=%artist%" -T "TITLE=%title%" -T "ALBUM=%albumtitle%" -T "DATE=%year%" -T "TRACKNUMBER=%tracknr%" -T "GENRE=%genre%" -T "COMMENT=%comment%" %hascover%--picture="%coverfile%"%hascover% %source% -o %dest%
TOC of the extracted CD
Track | Start | Length | Start sector | End sector --------------------------------------------------------- 1 | 0:00.00 | 4:11.53 | 0 | 18877 2 | 4:11.53 | 4:00.18 | 18878 | 36895 3 | 8:11.71 | 3:08.57 | 36896 | 51052 4 | 11:20.53 | 4:32.45 | 51053 | 71497 5 | 15:53.23 | 3:33.67 | 71498 | 87539 6 | 19:27.15 | 4:14.17 | 87540 | 106606 7 | 23:41.32 | 6:07.51 | 106607 | 134182 8 | 29:49.08 | 5:12.29 | 134183 | 157611 9 | 35:01.37 | 4:03.68 | 157612 | 175904 10 | 39:05.30 | 5:16.47 | 175905 | 199651 11 | 44:22.02 | 4:13.30 | 199652 | 218656 12 | 48:35.32 | 2:30.60 | 218657 | 229966 13 | 51:06.17 | 5:22.08 | 229967 | 254124
Track 1
Filename I:\CD_lossless_my\Secong breath (Второе дыхание) - Save the blues (2007)\01. Second Breath - For Katya.wav
Pre-gap length 0:00:02.00
Peak level 100.0 % Extraction speed 4.6 X Track quality 100.0 % Test CRC D8E74D76 Copy CRC D8E74D76 Track not present in AccurateRip database Copy OK
Track 2
Filename I:\CD_lossless_my\Secong breath (Второе дыхание) - Save the blues (2007)\02. Second Breath - Ain't Got You.wav
Pre-gap length 0:00:02.00
Peak level 100.0 % Extraction speed 5.1 X Track quality 100.0 % Test CRC A2AC46EB Copy CRC A2AC46EB Track not present in AccurateRip database Copy OK
Track 3
Filename I:\CD_lossless_my\Secong breath (Второе дыхание) - Save the blues (2007)\03. Second Breath - Roadhouse.wav
Pre-gap length 0:00:02.00
Peak level 100.0 % Extraction speed 5.4 X Track quality 100.0 % Test CRC DABAF0AE Copy CRC DABAF0AE Track not present in AccurateRip database Copy OK
Track 4
Filename I:\CD_lossless_my\Secong breath (Второе дыхание) - Save the blues (2007)\04. Second Breath - Save The Blues.wav
Pre-gap length 0:00:02.00
Peak level 100.0 % Extraction speed 3.5 X Track quality 99.9 % Test CRC 8A60E78C Copy CRC 8A60E78C Track not present in AccurateRip database Copy OK
Track 5
Filename I:\CD_lossless_my\Secong breath (Второе дыхание) - Save the blues (2007)\05. Second Breath - Sweet Little Sixteen.wav
Pre-gap length 0:00:02.00
Peak level 100.0 % Extraction speed 6.2 X Track quality 100.0 % Test CRC A822BC1E Copy CRC A822BC1E Track not present in AccurateRip database Copy OK
Track 6
Filename I:\CD_lossless_my\Secong breath (Второе дыхание) - Save the blues (2007)\06. Second Breath - Why People Like That.wav
Pre-gap length 0:00:02.00
Peak level 100.0 % Extraction speed 6.8 X Track quality 100.0 % Test CRC 691D34DE Copy CRC 691D34DE Track not present in AccurateRip database Copy OK
Track 7
Filename I:\CD_lossless_my\Secong breath (Второе дыхание) - Save the blues (2007)\07. Second Breath - Mannish Boy.wav
Pre-gap length 0:00:02.00
Peak level 100.0 % Extraction speed 7.0 X Track quality 100.0 % Test CRC 1F094B93 Copy CRC 1F094B93 Track not present in AccurateRip database Copy OK
Track 8
Filename I:\CD_lossless_my\Secong breath (Второе дыхание) - Save the blues (2007)\08. Second Breath - It Hearts Me Too.wav
Pre-gap length 0:00:02.00
Peak level 100.0 % Extraction speed 4.2 X Track quality 99.9 % Test CRC EA127E4D Copy CRC EA127E4D Track not present in AccurateRip database Copy OK
Track 9
Filename I:\CD_lossless_my\Secong breath (Второе дыхание) - Save the blues (2007)\09. Second Breath - Dixi.wav
Pre-gap length 0:00:02.00
Peak level 100.0 % Extraction speed 7.6 X Track quality 100.0 % Test CRC 075AF357 Copy CRC 075AF357 Track not present in AccurateRip database Copy OK
Track 10
Filename I:\CD_lossless_my\Secong breath (Второе дыхание) - Save the blues (2007)\10. Second Breath - I Like To Walk.wav
Pre-gap length 0:00:02.00
Peak level 100.0 % Extraction speed 7.7 X Track quality 100.0 % Test CRC 04AC8FD6 Copy CRC 04AC8FD6 Track not present in AccurateRip database Copy OK
Track 11
Filename I:\CD_lossless_my\Secong breath (Второе дыхание) - Save the blues (2007)\11. Second Breath - Let Me Love You.wav
Pre-gap length 0:00:02.00
Peak level 100.0 % Extraction speed 7.6 X Track quality 100.0 % Test CRC 5ECA1E03 Copy CRC 5ECA1E03 Track not present in AccurateRip database Copy OK
Track 12
Filename I:\CD_lossless_my\Secong breath (Второе дыхание) - Save the blues (2007)\12. Second Breath - House Is Rocking.wav
Pre-gap length 0:00:02.00
Peak level 100.0 % Extraction speed 7.0 X Track quality 100.0 % Test CRC 2D4D4CC2 Copy CRC 2D4D4CC2 Track not present in AccurateRip database Copy OK
Track 13
Filename I:\CD_lossless_my\Secong breath (Второе дыхание) - Save the blues (2007)\13. Second Breath - Got My Mojo Working.wav
Pre-gap length 0:00:02.00
Peak level 100.0 % Extraction speed 7.9 X Track quality 100.0 % Test CRC BF091627 Copy CRC BF091627 Track not present in AccurateRip database Copy OK
None of the tracks are present in the AccurateRip database
No errors occurred
End of status report
---- CUETools DB Plugin V2.1.6
[CTDB TOCID: MCkCOA15fdgq7l0Q7jpCXHhahJ8-] foundSubmit result: MCkCOA15fdgq7l0Q7jpCXHhahJ8- has been confirmedTrack | CTDB Status 1 | (1/1) Accurately ripped 2 | (1/1) Accurately ripped 3 | (1/1) Accurately ripped 4 | (1/1) Accurately ripped 5 | (1/1) Accurately ripped 6 | (1/1) Accurately ripped 7 | (1/1) Accurately ripped 8 | (1/1) Accurately ripped 9 | (1/1) Accurately ripped 10 | (1/1) Accurately ripped 11 | (1/1) Accurately ripped 12 | (1/1) Accurately ripped 13 | (1/1) Accurately ripped
==== Log checksum B64E3CC30497D3A077183C897008C8CEC0F01414DE41F6B96EF682215FB020B5 ====

Содержание индексной карты (.CUE)

REM GENRE BluesREM DATE 2007REM DISCID B80D3C0DREM COMMENT "ExactAudioCopy v1.3"PERFORMER "Second Breath"TITLE "Save the blues"REM COMPOSER ""FILE "01. Second Breath - For Katya.flac" WAVE  TRACK 01 AUDIO    TITLE "For Katya"    PERFORMER "Second Breath"    REM COMPOSER ""    INDEX 01 00:00:00  TRACK 02 AUDIO    TITLE "Ain't Got You"    PERFORMER "Second Breath"    REM COMPOSER ""    INDEX 00 04:09:53FILE "02. Second Breath - Ain't Got You.flac" WAVE    INDEX 01 00:00:00  TRACK 03 AUDIO    TITLE "Roadhouse"    PERFORMER "Second Breath"    REM COMPOSER ""    INDEX 00 03:58:18FILE "03. Second Breath - Roadhouse.flac" WAVE    INDEX 01 00:00:00  TRACK 04 AUDIO    TITLE "Save The Blues"    PERFORMER "Second Breath"    REM COMPOSER ""    INDEX 00 03:06:57FILE "04. Second Breath - Save The Blues.flac" WAVE    INDEX 01 00:00:00  TRACK 05 AUDIO    TITLE "Sweet Little Sixteen"    PERFORMER "Second Breath"    REM COMPOSER ""    INDEX 00 04:30:45FILE "05. Second Breath - Sweet Little Sixteen.flac" WAVE    INDEX 01 00:00:00  TRACK 06 AUDIO    TITLE "Why People Like That"    PERFORMER "Second Breath"    REM COMPOSER ""    INDEX 00 03:31:67FILE "06. Second Breath - Why People Like That.flac" WAVE    INDEX 01 00:00:00  TRACK 07 AUDIO    TITLE "Mannish Boy"    PERFORMER "Second Breath"    REM COMPOSER ""    INDEX 00 04:12:17FILE "07. Second Breath - Mannish Boy.flac" WAVE    INDEX 01 00:00:00  TRACK 08 AUDIO    TITLE "It Hearts Me Too"    PERFORMER "Second Breath"    REM COMPOSER ""    INDEX 00 06:05:51FILE "08. Second Breath - It Hearts Me Too.flac" WAVE    INDEX 01 00:00:00  TRACK 09 AUDIO    TITLE "Dixi"    PERFORMER "Second Breath"    REM COMPOSER ""    INDEX 00 05:10:29FILE "09. Second Breath - Dixi.flac" WAVE    INDEX 01 00:00:00  TRACK 10 AUDIO    TITLE "I Like To Walk"    PERFORMER "Second Breath"    REM COMPOSER ""    INDEX 00 04:01:68FILE "10. Second Breath - I Like To Walk.flac" WAVE    INDEX 01 00:00:00  TRACK 11 AUDIO    TITLE "Let Me Love You"    PERFORMER "Second Breath"    REM COMPOSER ""    INDEX 00 05:14:47FILE "11. Second Breath - Let Me Love You.flac" WAVE    INDEX 01 00:00:00  TRACK 12 AUDIO    TITLE "House Is Rocking"    PERFORMER "Second Breath"    REM COMPOSER ""    INDEX 00 04:11:30FILE "12. Second Breath - House Is Rocking.flac" WAVE    INDEX 01 00:00:00  TRACK 13 AUDIO    TITLE "Got My Mojo Working"    PERFORMER "Second Breath"    REM COMPOSER ""    INDEX 00 02:28:60FILE "13. Second Breath - Got My Mojo Working.flac" WAVE    INDEX 01 00:00:00
Доп. информация: https://www.discogs.com/release/12039352

Состав

вокал, гитара, тексты - Владимир Герасимович
гитара - Александр Кузнецов
басс-гитара, губная гармонь - Григорий Махно
ударные - Валерий Латанюк



Ви не можете починати теми
Ви не можете відповідати на повідомлення
Ви не можете редагувати свої повідомлення
Ви не можете видаляти свої повідомлення
Ви не можете голосувати в опитуваннях
Ви не можете прикріплювати файли до повідомлень
Ви можете скачувати файли