Приключения Нестерки / Прыгоды Несцеркі (2013) DVB от AND03AND


Статистика роздачі [Оновити пиров]
Розмір:  980 MB   |    Зареєстрований:  3 місяця 8 днів   |    Скачано:  0 раз
Сидів:  6  [  0 KB/s  ]   Детальна статистика піров
by Козак ®
13-Кві-2018 13:10


Приключения Нестерки / Прыгоды Несцеркі (2013) DVB от AND03AND

Информация о фильме
Название: Приключения Нестерки / Прыгоды Несцеркі
Год выхода: 2013
Жанр: семейный
Режиссер: Игорь Волчек
Роли озвучивали: Александр Кашперов, Геннадий Овсянников, Виктор Манаев, Александр Ткачёнок, Анастасия Волчек, Дмитрий Пустильник, Александр Ефремов, Тамара Муженко, Нина Розанцева, А. Хитрик, В. Мищанчук, О. Ткачев, И. Сичкарь, Михаил Тумеля, Ольга Демчихина-Нефедова, К. Марьянкова, Иван Мацкевич, Светлана Суховей, Артур Федорович, В. Кавалерова, В. Корзюк
О фильме:
Мультипликационный фильм состоит из 8 смешных, увлекательных историй, в которых главный герой Нестерка вместе со своими неразлучными друзьями, псом и котом, попадая в разные ситуации, выходит с честью из них. Они превращают обыкновенные глиняные горшки в музыкальный инструмент, побеждают кровожадного Дракона-Цмока, похитившего невесту Нестерки, и находят управу на Лихо, поселившееся в их доме…
В основе фильма лежат белорусские сказки, и сам популярный герой легенд и преданий Нестерка является воплощением белорусских качеств: находчивый, добрый, веселый и немного незадачливый.
«Приключения Нестерки» — первый белорусский анимационный полнометражный фильм, выпущенный в 2013 году киностудией Беларусьфильм.
Автор сценария: Дмитрий Якутович
Звукорежиссёр: Сергей Чупров
Композитор: Леонид Захлевный
Художники-постановщики: Алла Матюшевская, Ирина Тарасова, Стас Сперанский
Награды:
Диплом «За яркое и оригинальное развитие национальных традиций в анимации для детей» на XХ Международном фестивале анимационных фильмов «КРОК» (Украина, 2013)
Диплом детского жюри на XVIII Международном кинофестивале детского и молодежного анимационного кино «Золотая Рыбка» (Геленджик, Россия, 2013)
Запись потока *.ts с наземного цифрового телеканала "Беларусь 3", ремукс в *.mkv программой VideoReDo.

Страна: Республика Беларусь
Студия: Беларусьфильм
Продолжительность: 00:52:01
Язык: две звуковые дорожки (русская и белорусская)
Интертитры: белорусские
Файл
Кодек: AVC (H264)
Качество: DVB
Видео: 720x576 (4:3) @ 786x576, 25.000 fps, AVC, ~2134 Kbps, 0.206 bits/pixel
Звук:
Аудио 1: Russian, 48.0 KHz, AC3, 2 ch, 192 Kbps
Аудио 2: Belarusian, 48.0 KHz, MP2, 2 ch, 256 Kbps
Семпл

Подробные технические данные

General
Unique ID : 185645857579578695660737581992884572409 (0x8BAA17742C100A8883D7B87D92CC10F9)
Complete name : Прыгоды Несцеркі 2013 DVB-T2.rus.bel.mkv
Format : Matroska
Format version : Version 4 / Version 2
File size : 980 MiB
Duration : 52mn 0s
Overall bit rate : 2 634 Kbps
Encoded date : UTC 2016-01-05 10:00:27
Writing application : mkvmerge v8.3.0 ('Over the Horizon') 64bit
Writing library : libebml v1.3.1 + libmatroska v1.4.2
Video
ID : 1
Format : AVC
Format/Info : Advanced Video Codec
Format profile : Main@L3
Format settings, CABAC : Yes
Format settings, ReFrames : 4 frames
Format settings, GOP : M=4, N=24
Codec ID : V_MPEG4/ISO/AVC
Duration : 52mn 0s
Bit rate : 2 134 Kbps
Width : 720 pixels
Height : 576 pixels
Display aspect ratio : 4:3
Original display aspect ratio : 4:3
Frame rate mode : Constant
Frame rate : 25.000 fps
Standard : PAL
Color space : YUV
Chroma subsampling : 4:2:0
Bit depth : 8 bits
Scan type : MBAFF
Scan type, store method : Interleaved fields
Scan order : Top Field First
Bits/(Pixel*Frame) : 0.206
Stream size : 794 MiB (81%)
Language : Belarusian
Default : Yes
Forced : No
Color range : Limited
Color primaries : BT.601 PAL
Transfer characteristics : BT.470 System B, BT.470 System G
Matrix coefficients : BT.601
Audio #1
ID : 2
Format : AC-3
Format/Info : Audio Coding 3
Mode extension : CM (complete main)
Format settings, Endianness : Big
Codec ID : A_AC3
Duration : 52mn 0s
Bit rate mode : Constant
Bit rate : 192 Kbps
Channel(s) : 2 channels
Channel positions : Front: L R
Sampling rate : 48.0 KHz
Frame rate : 31.250 fps (1536 spf)
Compression mode : Lossy
Stream size : 71.4 MiB (7%)
Language : Russian
Default : Yes
Forced : No
Audio #2
ID : 3
Format : MPEG Audio
Format version : Version 1
Format profile : Layer 2
Codec ID : A_MPEG/L2
Codec ID/Hint : MP2
Duration : 52mn 0s
Bit rate mode : Constant
Bit rate : 256 Kbps
Channel(s) : 2 channels
Sampling rate : 48.0 KHz
Compression mode : Lossy
Stream size : 95.2 MiB (10%)
Language : Belarusian
Default : No
Forced : No



Ви не можете починати теми
Ви не можете відповідати на повідомлення
Ви не можете редагувати свої повідомлення
Ви не можете видаляти свої повідомлення
Ви не можете голосувати в опитуваннях
Ви не можете прикріплювати файли до повідомлень
Ви можете скачувати файли