(Pop Vocal) [CD] Tom Jones - Legends (Deilay Miror, promo) - 2007, FLAC (image+.cue), lossless


Статистика роздачі [Оновити пиров]
Розмір:  158 MB   |    Зареєстрований:  6 днів   |    Скачано:  0 раз

Повного джерела не було: Ніколи

by Козак ®
11-Лют-2019 13:05


(Pop Vocal) [CD] Tom Jones - Legends (Deilay Miror, promo) - 2007, FLAC (image+.cue), lossless

Tom Jones / Tom Jones
Жанр: Pop Vocal
Носитель: CD
Страна-производитель диска (релиза): UK
Год издания: 2007
Издатель (лейбл): Carbon ‎– DMDVATJ
Номер по каталогу: L 039
Страна исполнителя (группы): UK
Аудиокодек: FLAC (*.flac)
Тип рипа: image+.cue
Битрейт аудио: lossless
Продолжительность: 26:22
Источник: собственная покупка, собственный рип
Наличие сканов в содержимом раздачи: да
Треклист:
1 What's New Pussycat?
2 Delilah
3 Green, Green Grass Of Home
4 Honky Tonk Woman
5 Oh, Pretty Woman
6 In The Midnight Hour
7 Sexy Eyes
8 Rock & Roll Music
9 Georgia On My Mind
10 The Most Beautiful Girl

Лог создания рипа

Exact Audio Copy V1.3 from 2. September 2016
Отчёт EAC об извлечении, выполненном 11. февраля 2019, 11:58
Tom Jones / Legends - Tom Jones - Daily Mirror
Дисковод: PLDS DVD-RW DS8A8SH Adapter: 0 ID: 1
Режим чтения : ДостоверностьИспользование точного потока : ДаОтключение кэша аудио : ДаИспользование указателей C2 : Нет
Коррекция смещения при чтении : 6Способность читать области Lead-in и Lead-out : НетЗаполнение пропущенных сэмплов тишиной : ДаУдаление блоков с тишиной в начале и конце : НетПри вычислениях CRC использовались нулевые сэмплы : ДаИнтерфейс : Установленный внешний ASPI-интерфейс
Выходной формат : Пользовательский кодировщикВыбранный битрейт : 128 kBit/sКачество : ВысокийДобавление ID3-тега : НетУтилита сжатия : C:\Program Files\Exact Audio Copy\FLAC\FLAC.EXEДополнительные параметры : -V -8 -T "Date=%year%" -T "Genre=%genre%" %source%
TOC извлечённого CD
Трек | Старт | Длительность | Начальный сектор | Конечный сектор --------------------------------------------------------------------- 1 | 0:00.00 | 2:14.12 | 0 | 10061 2 | 2:14.12 | 2:37.15 | 10062 | 21851 3 | 4:51.27 | 2:30.22 | 21852 | 33123 4 | 7:21.49 | 3:01.00 | 33124 | 46698 5 | 10:22.49 | 2:39.03 | 46699 | 58626 6 | 13:01.52 | 1:57.32 | 58627 | 67433 7 | 14:59.09 | 2:27.70 | 67434 | 78528 8 | 17:27.04 | 3:08.34 | 78529 | 92662 9 | 20:35.38 | 3:14.23 | 92663 | 107235 10 | 23:49.61 | 2:31.52 | 107236 | 118612
Характеристики диапазона извлечения и сообщения об ошибках
Выбранный диапазон
Имя файла D:\Tom Jones\Tom Jones - Legends - Tom Jones - Daily Mirror.wav
Пиковый уровень 99.9 % Скорость извлечения 1.5 X Качество диапазона 100.0 % CRC копии 37ACA8F7 Копирование... OK
Ошибок не произошло
AccurateRip: сводка
Трек 1 : извлечено точно (доверие 3) [B338A674] (AR v2)Трек 2 : извлечено точно (доверие 3) [D2990F38] (AR v2)Трек 3 : извлечено точно (доверие 3) [A57489B1] (AR v2)Трек 4 : извлечено точно (доверие 3) [36901DC0] (AR v2)Трек 5 : извлечено точно (доверие 3) [93D0551D] (AR v2)Трек 6 : извлечено точно (доверие 3) [BB58EE13] (AR v2)Трек 7 : извлечено точно (доверие 3) [A92D4A08] (AR v2)Трек 8 : извлечено точно (доверие 3) [59DAE556] (AR v2)Трек 9 : извлечено точно (доверие 3) [767E35E5] (AR v2)Трек 10 : извлечено точно (доверие 3) [316BB6E5] (AR v2)
Все треки извлечены точно
Конец отчёта
==== Контрольная сумма отчёта 850C765431640E6E2971ABD02C24A7515C9BB3B9814BD0101B55831847E4CA55 ====

Содержание индексной карты (.CUE)

REM GENRE PopREM DATE 2007REM DISCID 71062D0AREM COMMENT "ExactAudioCopy v1.3"PERFORMER "Tom Jones"TITLE "Legends - Tom Jones - Daily Mirror"REM COMPOSER ""FILE "Tom Jones - Legends - Daily Mirror.flac" WAVE  TRACK 01 AUDIO    TITLE "What's new Pussycat"    PERFORMER "Tom Jones"    REM COMPOSER ""    INDEX 01 00:00:00  TRACK 02 AUDIO    TITLE "Delilah"    PERFORMER "Tom Jones"    REM COMPOSER ""    INDEX 01 02:14:12  TRACK 03 AUDIO    TITLE "Green, green grass of home"    PERFORMER "Tom Jones"    REM COMPOSER ""    INDEX 01 04:51:27  TRACK 04 AUDIO    TITLE "Honky tonk woman"    PERFORMER "Tom Jones"    REM COMPOSER ""    INDEX 01 07:21:49  TRACK 05 AUDIO    TITLE "Oh, Pretty Woman"    PERFORMER "Tom Jones"    REM COMPOSER ""    INDEX 01 10:22:49  TRACK 06 AUDIO    TITLE "In the midnight Hour"    PERFORMER "Tom Jones"    REM COMPOSER ""    INDEX 01 13:01:52  TRACK 07 AUDIO    TITLE "Sexy Eyes"    PERFORMER "Tom Jones"    REM COMPOSER ""    INDEX 01 14:59:09  TRACK 08 AUDIO    TITLE "Tom Jones - Rock And Roll Music"    PERFORMER "Tom Jones"    REM COMPOSER ""    INDEX 01 17:27:04  TRACK 09 AUDIO    TITLE "Georgia On My Mind"    PERFORMER "Tom Jones"    REM COMPOSER ""    INDEX 01 20:35:38  TRACK 10 AUDIO    TITLE "The Most Beautiful Girl In The World"    PERFORMER "Tom Jones"    REM COMPOSER ""    INDEX 01 23:49:61
Доп. информация: Диск куплен на ebay.



Ви не можете починати теми
Ви не можете відповідати на повідомлення
Ви не можете редагувати свої повідомлення
Ви не можете видаляти свої повідомлення
Ви не можете голосувати в опитуваннях
Ви не можете прикріплювати файли до повідомлень
Ви можете скачувати файли