(Chanson) [CD] Жеко Стоянов (Jeko Stojanoff) - Рота - Самые лучшие русские песни 2 - 2007, FLAC (tracks+.cue), lossless


Статистика роздачі [Оновити пиров]
Розмір:  342 MB   |    Зареєстрований:  6 днів   |    Скачано:  0 раз

Повного джерела не було: Ніколи

by Козак ®
11-Лют-2019 05:20


(Chanson) [CD] Жеко Стоянов (Jeko Stojanoff) - Рота - Самые лучшие русские песни 2 - 2007, FLAC (tracks+.cue), lossless

Жеко Стоянов (Jeko Stojanoff) / Рота - Самые лучшие русские песни 2
Жанр: Chanson
Носитель: CD
Страна-производитель диска (релиза): Болгария (Бургас)
Год издания: 2007
Издатель (лейбл): "СтефКос Мюзик"
Номер по каталогу: SM0705112/МКNo14627
Страна исполнителя (группы): Руссия
Аудиокодек: FLAC (*.flac)
Тип рипа: tracks+.cue
Битрейт аудио: lossless
Продолжительность: 00:41:09
Источник: собственный рип
Наличие сканов в содержимом раздачи: да
Треклист:
01. Пуля грешная
02. Рота
03. Мои ясные дни
04. Земля в илюминаторе
05. Забытый полк
06. Я спросил у ясеня
07. Позови меня
08. Господа офицеры
09. Лучшие кинопесни (Mix)
a. Песня про зайцев
b. Песня Мушкетеров
c. Александра
d. и другие .....
Бонус:
10. Синее небо России

Содержание индексной карты (.CUE)

REM GENRE ChansonREM DATE 2007REM DISCID 8E09A50AREM COMMENT "ExactAudioCopy v1.3"PERFORMER "Жеко Стоянов (Jeko Stojanoff)  "TITLE "Рота - Самые лучшие русские песни 2"REM COMPOSER ""FILE "01 Пуля грешная.wav" WAVE  TRACK 01 AUDIO    TITLE "Пуля грешная"    PERFORMER "Жеко Стоянов (Jeko Stojanoff)  "    REM COMPOSER ""    INDEX 01 00:00:00FILE "02 Рота.wav" WAVE  TRACK 02 AUDIO    TITLE "Рота"    PERFORMER "Жеко Стоянов (Jeko Stojanoff)  "    REM COMPOSER ""    INDEX 01 00:00:00FILE "03 Мои ясные дни.wav" WAVE  TRACK 03 AUDIO    TITLE "Мои ясные дни"    PERFORMER "Жеко Стоянов (Jeko Stojanoff)  "    REM COMPOSER ""    INDEX 01 00:00:00FILE "04 Земля в илюминаторе.wav" WAVE  TRACK 04 AUDIO    TITLE "Земля в илюминаторе"    PERFORMER "Жеко Стоянов (Jeko Stojanoff)  "    REM COMPOSER ""    INDEX 01 00:00:00FILE "05 Забытый полк.wav" WAVE  TRACK 05 AUDIO    TITLE "Забытый полк"    PERFORMER "Жеко Стоянов (Jeko Stojanoff)  "    REM COMPOSER ""    INDEX 01 00:00:00FILE "06 Я спросил у ясеня.wav" WAVE  TRACK 06 AUDIO    TITLE "Я спросил у ясеня"    PERFORMER "Жеко Стоянов (Jeko Stojanoff)  "    REM COMPOSER ""    INDEX 01 00:00:00FILE "07 Позови меня.wav" WAVE  TRACK 07 AUDIO    TITLE "Позови меня"    PERFORMER "Жеко Стоянов (Jeko Stojanoff)  "    REM COMPOSER ""    INDEX 01 00:00:00FILE "08 Господа офицеры.wav" WAVE  TRACK 08 AUDIO    TITLE "Господа офицеры"    PERFORMER "Жеко Стоянов (Jeko Stojanoff)  "    REM COMPOSER ""    INDEX 01 00:00:00FILE "09 Лучшие кинопесни (Mix).wav" WAVE  TRACK 09 AUDIO    TITLE "Лучшие кинопесни (Mix)"    PERFORMER "Жеко Стоянов (Jeko Stojanoff)  "    REM COMPOSER ""    INDEX 01 00:00:00FILE "10 Синее небо России.wav" WAVE  TRACK 10 AUDIO    TITLE "Синее небо России "    PERFORMER "Жеко Стоянов (Jeko Stojanoff)  "    REM COMPOSER ""    INDEX 01 00:00:00

Лог проверки качества

Exact Audio Copy V1.3 from 2. September 2016
Отчёт EAC об извлечении, выполненном 16. января 2019, 20:06
Жеко Стоянов (Jeko Stojanoff) / Рота - Самые лучшие русские песни 2
Дисковод: PLEXTOR DVDR PX-L890SA Adapter: 1 ID: 0
Режим чтения : ДостоверностьИспользование точного потока : ДаОтключение кэша аудио : ДаИспользование указателей C2 : Нет
Коррекция смещения при чтении : 6Способность читать области Lead-in и Lead-out : НетЗаполнение пропущенных сэмплов тишиной : ДаУдаление блоков с тишиной в начале и конце : НетПри вычислениях CRC использовались нулевые сэмплы : ДаИнтерфейс : Встроенный Win32-интерфейс для Win NT/2000Обработка зазоров : Добавлено к предыдущему треку
Выходной формат : Пользовательский кодировщикВыбранный битрейт : 896 kBit/sКачество : ВысокийДобавление ID3-тега : НетУтилита сжатия : C:\Program Files\Exact Audio Copy\Flac\flac.exeДополнительные параметры : -V -8 -T "Genre=%genre%" -T "Artist=%artist%" -T "Title=%title%" -T "Album=%albumtitle%" -T "Date=%year%" -T "Tracknumber=%tracknr%" -T "Comment=%comment%" %source%
TOC извлечённого CD
Трек | Старт | Длительность | Начальный сектор | Конечный сектор --------------------------------------------------------------------- 1 | 0:00.00 | 3:34.74 | 0 | 16123 2 | 3:34.74 | 4:19.49 | 16124 | 35597 3 | 7:54.48 | 3:09.72 | 35598 | 49844 4 | 11:04.45 | 4:48.73 | 49845 | 71517 5 | 15:53.43 | 4:49.05 | 71518 | 93197 6 | 20:42.48 | 3:09.11 | 93198 | 107383 7 | 23:51.59 | 2:44.49 | 107384 | 119732 8 | 26:36.33 | 5:26.21 | 119733 | 144203 9 | 32:02.54 | 5:32.60 | 144204 | 169163 10 | 37:35.39 | 3:34.15 | 169164 | 185228
Трек 1
Имя файла E:\Lossless\Жеко Стоянов - Рота - Самые лучшие русские песни 2 2007\01 Пуля грешная.wav
Длина предзазора 0:00:02.00
Пиковый уровень 97.7 % Скорость извлечения 4.1 X Качество трека 100.0 % CRC теста CF3B4660 CRC копии CF3B4660 Трек не обнаружен в базе AccurateRip Копирование... OK
Трек 2
Имя файла E:\Lossless\Жеко Стоянов - Рота - Самые лучшие русские песни 2 2007\02 Рота.wav
Пиковый уровень 97.7 % Скорость извлечения 4.5 X Качество трека 100.0 % CRC теста 4656C1C6 CRC копии 4656C1C6 Трек не обнаружен в базе AccurateRip Копирование... OK
Трек 3
Имя файла E:\Lossless\Жеко Стоянов - Рота - Самые лучшие русские песни 2 2007\03 Мои ясные дни.wav
Пиковый уровень 97.7 % Скорость извлечения 4.4 X Качество трека 100.0 % CRC теста 15326395 CRC копии 15326395 Трек не обнаружен в базе AccurateRip Копирование... OK
Трек 4
Имя файла E:\Lossless\Жеко Стоянов - Рота - Самые лучшие русские песни 2 2007\04 Земля в илюминаторе.wav
Пиковый уровень 97.7 % Скорость извлечения 4.7 X Качество трека 100.0 % CRC теста 6FDD727B CRC копии 6FDD727B Трек не обнаружен в базе AccurateRip Копирование... OK
Трек 5
Имя файла E:\Lossless\Жеко Стоянов - Рота - Самые лучшие русские песни 2 2007\05 Забытый полк.wav
Пиковый уровень 97.7 % Скорость извлечения 4.7 X Качество трека 100.0 % CRC теста 4F785D2F CRC копии 4F785D2F Трек не обнаружен в базе AccurateRip Копирование... OK
Трек 6
Имя файла E:\Lossless\Жеко Стоянов - Рота - Самые лучшие русские песни 2 2007\06 Я спросил у ясеня.wav
Пиковый уровень 97.7 % Скорость извлечения 4.4 X Качество трека 100.0 % CRC теста EE3B3307 CRC копии EE3B3307 Трек не обнаружен в базе AccurateRip Копирование... OK
Трек 7
Имя файла E:\Lossless\Жеко Стоянов - Рота - Самые лучшие русские песни 2 2007\07 Позови меня.wav
Пиковый уровень 97.7 % Скорость извлечения 3.8 X Качество трека 99.9 % CRC теста 29AB0221 CRC копии 29AB0221 Трек не обнаружен в базе AccurateRip Копирование... OK
Трек 8
Имя файла E:\Lossless\Жеко Стоянов - Рота - Самые лучшие русские песни 2 2007\08 Господа офицеры.wav
Пиковый уровень 97.7 % Скорость извлечения 4.7 X Качество трека 100.0 % CRC теста 5CD68449 CRC копии 5CD68449 Трек не обнаружен в базе AccurateRip Копирование... OK
Трек 9
Имя файла E:\Lossless\Жеко Стоянов - Рота - Самые лучшие русские песни 2 2007\09 Лучшие кинопесни (Mix).wav
Пиковый уровень 97.7 % Скорость извлечения 4.8 X Качество трека 100.0 % CRC теста 16811A3E CRC копии 16811A3E Трек не обнаружен в базе AccurateRip Копирование... OK
Трек 10
Имя файла E:\Lossless\Жеко Стоянов - Рота - Самые лучшие русские песни 2 2007\10 Синее небо России.wav
Пиковый уровень 79.3 % Скорость извлечения 4.4 X Качество трека 100.0 % CRC теста A6A2C768 CRC копии A6A2C768 Трек не обнаружен в базе AccurateRip Копирование... OK
Ни одного трека нет в базе AccurateRip
Ошибок не произошло
Конец отчёта
---- CUETools DB Plugin V2.1.6
[CTDB TOCID: xrpNcYyKPr4NIFCgr1xDvhU1eoY-] foundSubmit result:Track | CTDB Status 1 | (1/1) Accurately ripped 2 | (1/1) Accurately ripped 3 | (1/1) Accurately ripped 4 | (1/1) Accurately ripped 5 | (1/1) Accurately ripped 6 | (1/1) Accurately ripped 7 | (1/1) Accurately ripped 8 | (1/1) Accurately ripped 9 | (1/1) Accurately ripped 10 | (1/1) Accurately ripped
==== Контрольная сумма отчёта 202F0507C50FE2FD0D72AA7239AD62F09D72271182454E0FF316FE641900E934 ====

Об исполнителе (группе)

Вокал и гитара: Жеко Стоянов - Строганоф
Клавишные, перкусия, аранжименты и мастеринг: Руслан Карагьозов
Запись: Студио "Горещ вятър" март-апрель 2007 Бургас, Болгария
Консультант: к-н I-го ранга М.Чубенков
Продюссер: Stroganoff



Ви не можете починати теми
Ви не можете відповідати на повідомлення
Ви не можете редагувати свої повідомлення
Ви не можете видаляти свої повідомлення
Ви не можете голосувати в опитуваннях
Ви не можете прикріплювати файли до повідомлень
Ви можете скачувати файли