(Reggae, Dub) [CD] Jackie Mittoo - Striker Showcase - 2017, FLAC (tracks+.cue), lossless


Статистика роздачі [Оновити пиров]
Розмір:  725 MB   |    Зареєстрований:  6 днів   |    Скачано:  0 раз

Повного джерела не було: Ніколи

by Паночка ®
11-Лют-2019 03:25


(Reggae, Dub) [CD] Jackie Mittoo - Striker Showcase - 2017, FLAC (tracks+.cue), lossless

Jackie MittooStriker Showcase
Жанр: Reggae, Dub
Носитель: CD
Страна-производитель диска (релиза): UK
Год издания: 2017
Издатель (лейбл): 17 North Parade
Номер по каталогу: VP2622
Страна исполнителя (группы): Jamaica
Аудиокодек: FLAC (*.flac)
Тип рипа: tracks+.cue
Битрейт аудио: lossless
Продолжительность: 02:03:45
Источник: собственный рип
Наличие сканов в содержимом раздачи: нет

CD 1 - The Jackie Mittoo Showcase

Продолжительность: 01:08:27
Треклист:
01. Champion of the Arena
02. Hot Milk
03. Darker Shade of Black
04. Drum Song
05. The Sniper
06. Peace Treaty
07. North of the Sun
08. Jumping Jack
09. Super Charge
10. One Step Forward
11. Death Trap
12. Earthquake
13. Atom Sounds
14. In Cold Blood
15. Ram Jam
16. Clean Up the Arena

Лог создания рипа

Exact Audio Copy V1.3 from 2. September 2016
EAC extraction logfile from 10. February 2019, 21:18
Jackie Mittoo / Sriker Showcase
Used drive : PLEXTOR DVDR PX-891SA Adapter: 1 ID: 0
Read mode : SecureUtilize accurate stream : YesDefeat audio cache : YesMake use of C2 pointers : No
Read offset correction : 6Overread into Lead-In and Lead-Out : NoFill up missing offset samples with silence : YesDelete leading and trailing silent blocks : NoNull samples used in CRC calculations : YesUsed interface : Native Win32 interface for Win NT & 2000Gap handling : Appended to previous track
Used output format : User Defined EncoderSelected bitrate : 1024 kBit/sQuality : HighAdd ID3 tag : NoCommand line compressor : C:\Program Files (x86)\Exact Audio Copy\FLAC\FLAC.EXEAdditional command line options : -8 -V -T "ARTIST=%artist%" -T "TITLE=%title%" -T "ALBUM=%albumtitle%" -T "DATE=%year%" -T "TRACKNUMBER=%tracknr%" -T "GENRE=%genre%" -T "COMMENT=%comment%" -T "BAND=%albuminterpret%" -T "ALBUMARTIST=%albuminterpret%" -T "COMPOSER=%composer%" %haslyrics%--tag-from-file=LYRICS="%lyricsfile%"%haslyrics% -T "DISCNUMBER=%cdnumber%" -T "TOTALDISCS=%totalcds%" -T "TOTALTRACKS=%numtracks%" %hascover%--picture="%coverfile%"%hascover% %source% -o %dest%
TOC of the extracted CD
Track | Start | Length | Start sector | End sector --------------------------------------------------------- 1 | 0:00.00 | 3:48.63 | 0 | 17162 2 | 3:48.63 | 4:12.01 | 17163 | 36063 3 | 8:00.64 | 3:53.39 | 36064 | 53577 4 | 11:54.28 | 4:20.02 | 53578 | 73079 5 | 16:14.30 | 4:09.40 | 73080 | 91794 6 | 20:23.70 | 4:19.35 | 91795 | 111254 7 | 24:43.30 | 4:46.55 | 111255 | 132759 8 | 29:30.10 | 3:34.38 | 132760 | 148847 9 | 33:04.48 | 4:11.07 | 148848 | 167679 10 | 37:15.55 | 4:36.35 | 167680 | 188414 11 | 41:52.15 | 6:10.46 | 188415 | 216210 12 | 48:02.61 | 3:26.33 | 216211 | 231693 13 | 51:29.19 | 3:41.37 | 231694 | 248305 14 | 55:10.56 | 3:23.45 | 248306 | 263575 15 | 58:34.26 | 4:17.33 | 263576 | 282883 16 | 62:51.59 | 5:35.34 | 282884 | 308042
Track 1
Filename H:\Torrents\Mittoo, Jackie\Jackie Mittoo (2017) [VP2622] Striker Showcase\CD 1 - The Jackie Mittoo Showcase\01. Champion of the Arena.wav
Pre-gap length 0:00:02.00
Peak level 98.0 % Extraction speed 5.7 X Track quality 100.0 % Test CRC 9D53FCEB Copy CRC 9D53FCEB Accurately ripped (confidence 2) [4252CB5E] (AR v2) Copy OK
Track 2
Filename H:\Torrents\Mittoo, Jackie\Jackie Mittoo (2017) [VP2622] Striker Showcase\CD 1 - The Jackie Mittoo Showcase\02. Hot Milk.wav
Peak level 98.4 % Extraction speed 5.4 X Track quality 99.9 % Test CRC D5EAD3C2 Copy CRC D5EAD3C2 Accurately ripped (confidence 2) [2A92A2FA] (AR v2) Copy OK
Track 3
Filename H:\Torrents\Mittoo, Jackie\Jackie Mittoo (2017) [VP2622] Striker Showcase\CD 1 - The Jackie Mittoo Showcase\03. Darker Shade of Black.wav
Peak level 98.4 % Extraction speed 6.9 X Track quality 100.0 % Test CRC 8284F48A Copy CRC 8284F48A Accurately ripped (confidence 2) [8547E0CD] (AR v2) Copy OK
Track 4
Filename H:\Torrents\Mittoo, Jackie\Jackie Mittoo (2017) [VP2622] Striker Showcase\CD 1 - The Jackie Mittoo Showcase\04. Drum Song.wav
Peak level 98.4 % Extraction speed 7.5 X Track quality 100.0 % Test CRC 16BF7E18 Copy CRC 16BF7E18 Accurately ripped (confidence 2) [1EFCD6F8] (AR v2) Copy OK
Track 5
Filename H:\Torrents\Mittoo, Jackie\Jackie Mittoo (2017) [VP2622] Striker Showcase\CD 1 - The Jackie Mittoo Showcase\05. The Sniper.wav
Peak level 98.4 % Extraction speed 7.9 X Track quality 100.0 % Test CRC A1CDFEBA Copy CRC A1CDFEBA Accurately ripped (confidence 2) [65DD5668] (AR v2) Copy OK
Track 6
Filename H:\Torrents\Mittoo, Jackie\Jackie Mittoo (2017) [VP2622] Striker Showcase\CD 1 - The Jackie Mittoo Showcase\06. Peace Treaty.wav
Peak level 98.4 % Extraction speed 8.4 X Track quality 100.0 % Test CRC BB5E710A Copy CRC BB5E710A Accurately ripped (confidence 2) [D3CCBEA7] (AR v2) Copy OK
Track 7
Filename H:\Torrents\Mittoo, Jackie\Jackie Mittoo (2017) [VP2622] Striker Showcase\CD 1 - The Jackie Mittoo Showcase\07. North of the Sun.wav
Peak level 98.4 % Extraction speed 8.9 X Track quality 100.0 % Test CRC 91B66B95 Copy CRC 91B66B95 Accurately ripped (confidence 2) [865DBB4B] (AR v2) Copy OK
Track 8
Filename H:\Torrents\Mittoo, Jackie\Jackie Mittoo (2017) [VP2622] Striker Showcase\CD 1 - The Jackie Mittoo Showcase\08. Jumping Jack.wav
Peak level 98.4 % Extraction speed 9.0 X Track quality 100.0 % Test CRC D6FE45B5 Copy CRC D6FE45B5 Accurately ripped (confidence 2) [7E8A0DBB] (AR v2) Copy OK
Track 9
Filename H:\Torrents\Mittoo, Jackie\Jackie Mittoo (2017) [VP2622] Striker Showcase\CD 1 - The Jackie Mittoo Showcase\09. Super Charge.wav
Peak level 99.0 % Extraction speed 9.6 X Track quality 100.0 % Test CRC 3DC523F4 Copy CRC 3DC523F4 Accurately ripped (confidence 2) [25ECAA1F] (AR v2) Copy OK
Track 10
Filename H:\Torrents\Mittoo, Jackie\Jackie Mittoo (2017) [VP2622] Striker Showcase\CD 1 - The Jackie Mittoo Showcase\10. One Step Forward.wav
Peak level 98.4 % Extraction speed 10.1 X Track quality 100.0 % Test CRC E11917DF Copy CRC E11917DF Accurately ripped (confidence 2) [07652601] (AR v2) Copy OK
Track 11
Filename H:\Torrents\Mittoo, Jackie\Jackie Mittoo (2017) [VP2622] Striker Showcase\CD 1 - The Jackie Mittoo Showcase\11. Death Trap.wav
Peak level 98.0 % Extraction speed 10.8 X Track quality 100.0 % Test CRC 785178EF Copy CRC 785178EF Accurately ripped (confidence 2) [C1EB21B1] (AR v2) Copy OK
Track 12
Filename H:\Torrents\Mittoo, Jackie\Jackie Mittoo (2017) [VP2622] Striker Showcase\CD 1 - The Jackie Mittoo Showcase\12. Earthquake.wav
Peak level 98.4 % Extraction speed 10.4 X Track quality 100.0 % Test CRC 0DA28A60 Copy CRC 0DA28A60 Accurately ripped (confidence 2) [B83E2D5A] (AR v2) Copy OK
Track 13
Filename H:\Torrents\Mittoo, Jackie\Jackie Mittoo (2017) [VP2622] Striker Showcase\CD 1 - The Jackie Mittoo Showcase\13. Atom Sounds.wav
Peak level 98.0 % Extraction speed 10.8 X Track quality 100.0 % Test CRC 863A0C2A Copy CRC 863A0C2A Accurately ripped (confidence 2) [BCA5C81E] (AR v2) Copy OK
Track 14
Filename H:\Torrents\Mittoo, Jackie\Jackie Mittoo (2017) [VP2622] Striker Showcase\CD 1 - The Jackie Mittoo Showcase\14. In Cold Blood.wav
Peak level 98.0 % Extraction speed 11.0 X Track quality 100.0 % Test CRC 8DAD9971 Copy CRC 8DAD9971 Accurately ripped (confidence 2) [E599E9F9] (AR v2) Copy OK
Track 15
Filename H:\Torrents\Mittoo, Jackie\Jackie Mittoo (2017) [VP2622] Striker Showcase\CD 1 - The Jackie Mittoo Showcase\15. Ram Jam.wav
Peak level 98.8 % Extraction speed 11.6 X Track quality 100.0 % Test CRC 6E865556 Copy CRC 6E865556 Accurately ripped (confidence 2) [C68E5588] (AR v2) Copy OK
Track 16
Filename H:\Torrents\Mittoo, Jackie\Jackie Mittoo (2017) [VP2622] Striker Showcase\CD 1 - The Jackie Mittoo Showcase\16. Clean Up the Arena.wav
Peak level 98.4 % Extraction speed 12.2 X Track quality 100.0 % Test CRC 0792CE40 Copy CRC 0792CE40 Accurately ripped (confidence 2) [710AF63F] (AR v2) Copy OK
All tracks accurately ripped
No errors occurred
End of status report
==== Log checksum 4106678B4124F6D561611659576EF22F1DA0B5A4A067176F6F7FB92DF6521F9A ====

Содержание индексной карты (.CUE)

REM GENRE ReggaeREM DATE 2017REM DISCID E7100B10REM COMMENT "ExactAudioCopy v1.3"PERFORMER "Jackie Mittoo"TITLE "Striker Showcase"REM COMPOSER ""FILE "01. Champion of the Arena.wav" WAVE  TRACK 01 AUDIO    TITLE "Champion of the Arena"    PERFORMER "Jackie Mittoo"    REM COMPOSER ""    ISRC USVPR1600871    INDEX 01 00:00:00FILE "02. Hot Milk.wav" WAVE  TRACK 02 AUDIO    TITLE "Hot Milk"    PERFORMER "Jackie Mittoo"    REM COMPOSER ""    ISRC USVPR1600872    INDEX 01 00:00:00FILE "03. Darker Shade of Black.wav" WAVE  TRACK 03 AUDIO    TITLE "Darker Shade of Black"    PERFORMER "Jackie Mittoo"    REM COMPOSER ""    ISRC USVPR1600873    INDEX 01 00:00:00FILE "04. Drum Song.wav" WAVE  TRACK 04 AUDIO    TITLE "Drum Song"    PERFORMER "Jackie Mittoo"    REM COMPOSER ""    ISRC USVPR1600874    INDEX 01 00:00:00FILE "05. The Sniper.wav" WAVE  TRACK 05 AUDIO    TITLE "The Sniper"    PERFORMER "Jackie Mittoo"    REM COMPOSER ""    ISRC USVPR1600875    INDEX 01 00:00:00FILE "06. Peace Treaty.wav" WAVE  TRACK 06 AUDIO    TITLE "Peace Treaty"    PERFORMER "Jackie Mittoo"    REM COMPOSER ""    ISRC USVPR1600876    INDEX 01 00:00:00FILE "07. North of the Sun.wav" WAVE  TRACK 07 AUDIO    TITLE "North of the Sun"    PERFORMER "Jackie Mittoo"    REM COMPOSER ""    ISRC USVPR1600877    INDEX 01 00:00:00FILE "08. Jumping Jack.wav" WAVE  TRACK 08 AUDIO    TITLE "Jumping Jack"    PERFORMER "Jackie Mittoo"    REM COMPOSER ""    ISRC USVPR1600878    INDEX 01 00:00:00FILE "09. Super Charge.wav" WAVE  TRACK 09 AUDIO    TITLE "Super Charge"    PERFORMER "Jackie Mittoo"    REM COMPOSER ""    ISRC USVPR1600879    INDEX 01 00:00:00FILE "10. One Step Forward.wav" WAVE  TRACK 10 AUDIO    TITLE "One Step Forward"    PERFORMER "Jackie Mittoo"    REM COMPOSER ""    ISRC USVPR1600880    INDEX 01 00:00:00FILE "11. Death Trap.wav" WAVE  TRACK 11 AUDIO    TITLE "Death Trap"    PERFORMER "Jackie Mittoo"    REM COMPOSER ""    ISRC USVPR1600881    INDEX 01 00:00:00FILE "12. Earthquake.wav" WAVE  TRACK 12 AUDIO    TITLE "Earthquake"    PERFORMER "Jackie Mittoo"    REM COMPOSER ""    ISRC USVPR1600882    INDEX 01 00:00:00FILE "13. Atom Sounds.wav" WAVE  TRACK 13 AUDIO    TITLE "Atom Sounds"    PERFORMER "Jackie Mittoo"    REM COMPOSER ""    ISRC USVPR1600883    INDEX 01 00:00:00FILE "14. In Cold Blood.wav" WAVE  TRACK 14 AUDIO    TITLE "In Cold Blood"    PERFORMER "Jackie Mittoo"    REM COMPOSER ""    ISRC USVPR1600884    INDEX 01 00:00:00FILE "15. Ram Jam.wav" WAVE  TRACK 15 AUDIO    TITLE "Ram Jam"    PERFORMER "Jackie Mittoo"    REM COMPOSER ""    ISRC USVPR1600885    INDEX 01 00:00:00FILE "16. Clean Up the Arena.wav" WAVE  TRACK 16 AUDIO    TITLE "Clean Up the Arena"    PERFORMER "Jackie Mittoo"    REM COMPOSER ""    ISRC USVPR1600886    INDEX 01 00:00:00

CD 2 - The Keyboard King • Hot Blood

Продолжительность: 00:55:18
Треклист:
01. The Thriller
02. You'll Never Find
03. A Rocking Sensation
04. World of Love
05. Creative Rock
06. The Avenger
07. The Penetrator
08. Mediator
09. A Standing Ovation
10. Jah Rock Style
11. Merry Go Round
12. Locks and Keys
13. Hot Blood
14. Man on the Hill
15. Disco Jack
16. Channel One Crash
17. Brain Mark
18. Dub Cut

Лог создания рипа

Exact Audio Copy V1.3 from 2. September 2016
EAC extraction logfile from 10. February 2019, 21:41
Jackie Mittoo / Striker Showcase
Used drive : PLEXTOR DVDR PX-891SA Adapter: 1 ID: 0
Read mode : SecureUtilize accurate stream : YesDefeat audio cache : YesMake use of C2 pointers : No
Read offset correction : 6Overread into Lead-In and Lead-Out : NoFill up missing offset samples with silence : YesDelete leading and trailing silent blocks : NoNull samples used in CRC calculations : YesUsed interface : Native Win32 interface for Win NT & 2000Gap handling : Appended to previous track
Used output format : User Defined EncoderSelected bitrate : 1024 kBit/sQuality : HighAdd ID3 tag : NoCommand line compressor : C:\Program Files (x86)\Exact Audio Copy\FLAC\FLAC.EXEAdditional command line options : -8 -V -T "ARTIST=%artist%" -T "TITLE=%title%" -T "ALBUM=%albumtitle%" -T "DATE=%year%" -T "TRACKNUMBER=%tracknr%" -T "GENRE=%genre%" -T "COMMENT=%comment%" -T "BAND=%albuminterpret%" -T "ALBUMARTIST=%albuminterpret%" -T "COMPOSER=%composer%" %haslyrics%--tag-from-file=LYRICS="%lyricsfile%"%haslyrics% -T "DISCNUMBER=%cdnumber%" -T "TOTALDISCS=%totalcds%" -T "TOTALTRACKS=%numtracks%" %hascover%--picture="%coverfile%"%hascover% %source% -o %dest%
TOC of the extracted CD
Track | Start | Length | Start sector | End sector --------------------------------------------------------- 1 | 0:00.00 | 2:23.48 | 0 | 10772 2 | 2:23.48 | 3:45.05 | 10773 | 27652 3 | 6:08.53 | 3:54.26 | 27653 | 45228 4 | 10:03.04 | 4:14.41 | 45229 | 64319 5 | 14:17.45 | 2:46.70 | 64320 | 76839 6 | 17:04.40 | 3:04.19 | 76840 | 90658 7 | 20:08.59 | 3:00.06 | 90659 | 104164 8 | 23:08.65 | 2:44.23 | 104165 | 116487 9 | 25:53.13 | 2:42.57 | 116488 | 128694 10 | 28:35.70 | 2:20.70 | 128695 | 139264 11 | 30:56.65 | 3:05.71 | 139265 | 153210 12 | 34:02.61 | 2:29.22 | 153211 | 164407 13 | 36:32.08 | 2:51.12 | 164408 | 177244 14 | 39:23.20 | 2:23.68 | 177245 | 188037 15 | 41:47.13 | 3:15.51 | 188038 | 202713 16 | 45:02.64 | 3:31.68 | 202714 | 218606 17 | 48:34.57 | 3:20.73 | 218607 | 233679 18 | 51:55.55 | 3:22.26 | 233680 | 248855
Track 1
Filename H:\Torrents\Mittoo, Jackie\Jackie Mittoo (2017) [VP2622] Striker Showcase\CD 2 - The Keyboard King • Hot Blood\01. The Thriller.wav
Pre-gap length 0:00:02.00
Peak level 98.4 % Extraction speed 4.6 X Track quality 100.0 % Test CRC 1E4B240C Copy CRC 1E4B240C Accurately ripped (confidence 2) [531D3F95] (AR v2) Copy OK
Track 2
Filename H:\Torrents\Mittoo, Jackie\Jackie Mittoo (2017) [VP2622] Striker Showcase\CD 2 - The Keyboard King • Hot Blood\02. You'll Never Find.wav
Peak level 98.0 % Extraction speed 4.5 X Track quality 99.9 % Test CRC 3C2F10B9 Copy CRC 3C2F10B9 Accurately ripped (confidence 2) [A6DB6DA0] (AR v2) Copy OK
Track 3
Filename H:\Torrents\Mittoo, Jackie\Jackie Mittoo (2017) [VP2622] Striker Showcase\CD 2 - The Keyboard King • Hot Blood\03. A Rocking Sensation.wav
Peak level 98.0 % Extraction speed 4.9 X Track quality 99.9 % Test CRC 1D5DFD7A Copy CRC 1D5DFD7A Accurately ripped (confidence 2) [24DFCC83] (AR v2) Copy OK
Track 4
Filename H:\Torrents\Mittoo, Jackie\Jackie Mittoo (2017) [VP2622] Striker Showcase\CD 2 - The Keyboard King • Hot Blood\04. World of Love.wav
Peak level 98.0 % Extraction speed 6.6 X Track quality 100.0 % Test CRC 0426EA8A Copy CRC 0426EA8A Accurately ripped (confidence 2) [486A1ED8] (AR v2) Copy OK
Track 5
Filename H:\Torrents\Mittoo, Jackie\Jackie Mittoo (2017) [VP2622] Striker Showcase\CD 2 - The Keyboard King • Hot Blood\05. Creative Rock.wav
Peak level 98.4 % Extraction speed 6.5 X Track quality 100.0 % Test CRC EB568079 Copy CRC EB568079 Accurately ripped (confidence 2) [17D1EE3F] (AR v2) Copy OK
Track 6
Filename H:\Torrents\Mittoo, Jackie\Jackie Mittoo (2017) [VP2622] Striker Showcase\CD 2 - The Keyboard King • Hot Blood\06. The Avenger.wav
Peak level 98.0 % Extraction speed 5.5 X Track quality 99.9 % Test CRC F17A7829 Copy CRC F17A7829 Accurately ripped (confidence 2) [F87C49BB] (AR v2) Copy OK
Track 7
Filename H:\Torrents\Mittoo, Jackie\Jackie Mittoo (2017) [VP2622] Striker Showcase\CD 2 - The Keyboard King • Hot Blood\07. The Penetrator.wav
Peak level 98.0 % Extraction speed 7.2 X Track quality 100.0 % Test CRC 6BC7D6A5 Copy CRC 6BC7D6A5 Accurately ripped (confidence 2) [CC865D63] (AR v2) Copy OK
Track 8
Filename H:\Torrents\Mittoo, Jackie\Jackie Mittoo (2017) [VP2622] Striker Showcase\CD 2 - The Keyboard King • Hot Blood\08. Mediator.wav
Peak level 98.0 % Extraction speed 5.7 X Track quality 99.9 % Test CRC BE976521 Copy CRC BE976521 Accurately ripped (confidence 2) [9A5FA789] (AR v2) Copy OK
Track 9
Filename H:\Torrents\Mittoo, Jackie\Jackie Mittoo (2017) [VP2622] Striker Showcase\CD 2 - The Keyboard King • Hot Blood\09. A Standing Ovation.wav
Peak level 98.0 % Extraction speed 7.7 X Track quality 100.0 % Test CRC F01D3B8A Copy CRC F01D3B8A Accurately ripped (confidence 2) [E975EEA2] (AR v2) Copy OK
Track 10
Filename H:\Torrents\Mittoo, Jackie\Jackie Mittoo (2017) [VP2622] Striker Showcase\CD 2 - The Keyboard King • Hot Blood\10. Jah Rock Style.wav
Peak level 98.0 % Extraction speed 7.6 X Track quality 100.0 % Test CRC 540C1196 Copy CRC 540C1196 Accurately ripped (confidence 2) [9CE5CFEA] (AR v2) Copy OK
Track 11
Filename H:\Torrents\Mittoo, Jackie\Jackie Mittoo (2017) [VP2622] Striker Showcase\CD 2 - The Keyboard King • Hot Blood\11. Merry Go Round.wav
Peak level 98.4 % Extraction speed 8.3 X Track quality 100.0 % Test CRC 646F523B Copy CRC 646F523B Accurately ripped (confidence 2) [405ED426] (AR v2) Copy OK
Track 12
Filename H:\Torrents\Mittoo, Jackie\Jackie Mittoo (2017) [VP2622] Striker Showcase\CD 2 - The Keyboard King • Hot Blood\12. Locks and Keys.wav
Peak level 98.4 % Extraction speed 8.2 X Track quality 100.0 % Test CRC 6476BE0E Copy CRC 6476BE0E Accurately ripped (confidence 2) [3889A56B] (AR v2) Copy OK
Track 13
Filename H:\Torrents\Mittoo, Jackie\Jackie Mittoo (2017) [VP2622] Striker Showcase\CD 2 - The Keyboard King • Hot Blood\13. Hot Blood.wav
Peak level 98.0 % Extraction speed 8.6 X Track quality 100.0 % Test CRC DBF88C72 Copy CRC DBF88C72 Accurately ripped (confidence 2) [76E18506] (AR v2) Copy OK
Track 14
Filename H:\Torrents\Mittoo, Jackie\Jackie Mittoo (2017) [VP2622] Striker Showcase\CD 2 - The Keyboard King • Hot Blood\14. Man on the Hill.wav
Peak level 98.4 % Extraction speed 8.5 X Track quality 100.0 % Test CRC E7A028F0 Copy CRC E7A028F0 Accurately ripped (confidence 2) [8F9149C1] (AR v2) Copy OK
Track 15
Filename H:\Torrents\Mittoo, Jackie\Jackie Mittoo (2017) [VP2622] Striker Showcase\CD 2 - The Keyboard King • Hot Blood\15. Disco Jack.wav
Peak level 98.4 % Extraction speed 9.2 X Track quality 100.0 % Test CRC 6069B6CC Copy CRC 6069B6CC Accurately ripped (confidence 2) [2378B0D8] (AR v2) Copy OK
Track 16
Filename H:\Torrents\Mittoo, Jackie\Jackie Mittoo (2017) [VP2622] Striker Showcase\CD 2 - The Keyboard King • Hot Blood\16. Channel One Crash.wav
Peak level 98.4 % Extraction speed 9.6 X Track quality 100.0 % Test CRC EA8CB6BE Copy CRC EA8CB6BE Accurately ripped (confidence 2) [F4F50D0F] (AR v2) Copy OK
Track 17
Filename H:\Torrents\Mittoo, Jackie\Jackie Mittoo (2017) [VP2622] Striker Showcase\CD 2 - The Keyboard King • Hot Blood\17. Brain Mark.wav
Peak level 98.4 % Extraction speed 9.7 X Track quality 100.0 % Test CRC 0F438F2A Copy CRC 0F438F2A Accurately ripped (confidence 2) [0B473D5F] (AR v2) Copy OK
Track 18
Filename H:\Torrents\Mittoo, Jackie\Jackie Mittoo (2017) [VP2622] Striker Showcase\CD 2 - The Keyboard King • Hot Blood\18. Dub Cut.wav
Peak level 98.4 % Extraction speed 9.9 X Track quality 100.0 % Test CRC 13167C19 Copy CRC 13167C19 Accurately ripped (confidence 2) [3AFD3A88] (AR v2) Copy OK
All tracks accurately ripped
No errors occurred
End of status report
==== Log checksum ABD0B35AB65E6F94E6A8546EF26F55ACB008E7594B0B81EB4B458BBC01458FA8 ====

Содержание индексной карты (.CUE)

REM GENRE ReggaeREM DATE 2017REM DISCID EC0CF612REM COMMENT "ExactAudioCopy v1.3"PERFORMER "Jackie Mittoo"TITLE "Striker Showcase"REM COMPOSER ""FILE "01. The Thriller.wav" WAVE  TRACK 01 AUDIO    TITLE "The Thriller"    PERFORMER "Jackie Mittoo"    REM COMPOSER ""    ISRC USVPR1600887    INDEX 01 00:00:00FILE "02. You'll Never Find.wav" WAVE  TRACK 02 AUDIO    TITLE "You'll Never Find"    PERFORMER "Jackie Mittoo"    REM COMPOSER ""    ISRC USVPR1600888    INDEX 01 00:00:00FILE "03. A Rocking Sensation.wav" WAVE  TRACK 03 AUDIO    TITLE "A Rocking Sensation"    PERFORMER "Jackie Mittoo"    REM COMPOSER ""    ISRC USVPR1600889    INDEX 01 00:00:00FILE "04. World of Love.wav" WAVE  TRACK 04 AUDIO    TITLE "World of Love"    PERFORMER "Jackie Mittoo"    REM COMPOSER ""    ISRC USVPR1600890    INDEX 01 00:00:00FILE "05. Creative Rock.wav" WAVE  TRACK 05 AUDIO    TITLE "Creative Rock"    PERFORMER "Jackie Mittoo"    REM COMPOSER ""    ISRC USVPR1600891    INDEX 01 00:00:00FILE "06. The Avenger.wav" WAVE  TRACK 06 AUDIO    TITLE "The Avenger"    PERFORMER "Jackie Mittoo"    REM COMPOSER ""    ISRC USVPR1600892    INDEX 01 00:00:00FILE "07. The Penetrator.wav" WAVE  TRACK 07 AUDIO    TITLE "The Penetrator"    PERFORMER "Jackie Mittoo"    REM COMPOSER ""    ISRC USVPR1600893    INDEX 01 00:00:00FILE "08. Mediator.wav" WAVE  TRACK 08 AUDIO    TITLE "Mediator"    PERFORMER "Jackie Mittoo"    REM COMPOSER ""    ISRC USVPR1600894    INDEX 01 00:00:00FILE "09. A Standing Ovation.wav" WAVE  TRACK 09 AUDIO    TITLE "A Standing Ovation"    PERFORMER "Jackie Mittoo"    REM COMPOSER ""    ISRC USVPR1600895    INDEX 01 00:00:00FILE "10. Jah Rock Style.wav" WAVE  TRACK 10 AUDIO    TITLE "Jah Rock Style"    PERFORMER "Jackie Mittoo"    REM COMPOSER ""    ISRC USVPR1600896    INDEX 01 00:00:00FILE "11. Merry Go Round.wav" WAVE  TRACK 11 AUDIO    TITLE "Merry Go Round"    PERFORMER "Jackie Mittoo"    REM COMPOSER ""    ISRC USVPR1600897    INDEX 01 00:00:00FILE "12. Locks and Keys.wav" WAVE  TRACK 12 AUDIO    TITLE "Locks and Keys"    PERFORMER "Jackie Mittoo"    REM COMPOSER ""    ISRC USVPR1600898    INDEX 01 00:00:00FILE "13. Hot Blood.wav" WAVE  TRACK 13 AUDIO    TITLE "Hot Blood"    PERFORMER "Jackie Mittoo"    REM COMPOSER ""    ISRC USVPR1600899    INDEX 01 00:00:00FILE "14. Man on the Hill.wav" WAVE  TRACK 14 AUDIO    TITLE "Man on the Hill"    PERFORMER "Jackie Mittoo"    REM COMPOSER ""    ISRC USVPR1600900    INDEX 01 00:00:00FILE "15. Disco Jack.wav" WAVE  TRACK 15 AUDIO    TITLE "Disco Jack"    PERFORMER "Jackie Mittoo"    REM COMPOSER ""    ISRC USVPR1600901    INDEX 01 00:00:00FILE "16. Channel One Crash.wav" WAVE  TRACK 16 AUDIO    TITLE "Channel One Crash"    PERFORMER "Jackie Mittoo"    REM COMPOSER ""    ISRC USVPR1600902    INDEX 01 00:00:00FILE "17. Brain Mark.wav" WAVE  TRACK 17 AUDIO    TITLE "Brain Mark"    PERFORMER "Jackie Mittoo"    REM COMPOSER ""    ISRC USVPR1600903    INDEX 01 00:00:00FILE "18. Dub Cut.wav" WAVE  TRACK 18 AUDIO    TITLE "Dub Cut"    PERFORMER "Jackie Mittoo"    REM COMPOSER ""    ISRC USVPR1600904    INDEX 01 00:00:00

Об исполнителе (группе)

https://www.discogs.com/artist/116683-Jackie-Mittoo



Ви не можете починати теми
Ви не можете відповідати на повідомлення
Ви не можете редагувати свої повідомлення
Ви не можете видаляти свої повідомлення
Ви не можете голосувати в опитуваннях
Ви не можете прикріплювати файли до повідомлень
Ви можете скачувати файли