[TR24][OF] Rachmaninov/Рахманинов - Piano Concerto No. 3 in D minor, Op. 30 - Alexis Weissenberg, Chicago Symphony Orchestra, Georges Pretre - 1968/2016 (Classical)


Статистика роздачі [Оновити пиров]
Розмір:  1,71 GB   |    Зареєстрований:  4 дня   |    Скачано:  0 раз

Повного джерела не було: Ніколи

by Паночка ®
13-Січ-2019 08:25


[TR24][OF] Rachmaninov/Рахманинов - Piano Concerto No. 3 in D minor, Op. 30 - Alexis Weissenberg, Chicago Symphony Orchestra, Georges Pretre - 1968/2016 (Classical)

Alexis Weissenberg, Chicago Symphony Orchestra, Georges Pretre / Rachmaninov/Рахманинов - Piano Concerto No. 3 in D minor, Op. 30
Формат записи/Источник записи: [TR24][OF]
Наличие водяных знаков: Нет
Год издания/переиздания диска: 1968/2016
Жанр: Classical
Издатель (лейбл): Sony
Продолжительность: 00:43:00
Наличие сканов в содержимом раздачи: Только обложка альбома
Треклист:
Rachmaninov: Piano Concerto No. 3 in D minor, Op. 30 43:00
01. I. Allegro ma non tanto 16:28
02. II. Intermezzo - Adagio 11:40
03. III. Finale - Alla breve 14:52-Georges Prêtre
Alexis Weissenberg (piano)
Chicago Symphony Orchestra-Контейнер: FLAC (*.flac)
Тип рипа: tracks
Разрядность: 24/192
Формат: PCM
Количество каналов: 2.0

Лог проверки качества

foobar2000 1.4.1 / Dynamic Range Meter 1.1.1log date: 2019-01-13 11:06:39
--------------------------------------------------------------------------------Analyzed: Alexis Weissenberg/Michael Moran/John Pfeiffer/Chicago Symphony Orchestra / Rachmaninoff: Piano Concerto No. 3 in D Minor, Op. 30--------------------------------------------------------------------------------
DR Peak RMS Duration Track--------------------------------------------------------------------------------DR11 -2.61 dB -19.11 dB 16:28 01-Piano Concerto No. 3 in D Minor, Op. 30: I. Allegro ma non tantoDR11 -2.38 dB -18.93 dB 11:40 02-Piano Concerto No. 3 in D Minor, Op. 30: II. Intermezzo - AdagioDR11 -0.33 dB -16.53 dB 14:53 03-Piano Concerto No. 3 in D Minor, Op. 30: III. Finale - Alla breve--------------------------------------------------------------------------------
Number of tracks: 3Official DR value: DR11
Samplerate: 192000 HzChannels: 2Bits per sample: 24Bitrate: 5720 kbpsCodec: FLAC================================================================================
Источник (релизер): https://www.prestomusic.com/classical/products/8193029--rachmaninov-piano-concert...in-d-minor-op-30
Композитор: Sergei Vasilievich Rachmaninoff/Сергей Васильевич Рахманинов



Ви не можете починати теми
Ви не можете відповідати на повідомлення
Ви не можете редагувати свої повідомлення
Ви не можете видаляти свої повідомлення
Ви не можете голосувати в опитуваннях
Ви не можете прикріплювати файли до повідомлень
Ви можете скачувати файли