[DSD][OF] Chlara - evo sessions - 2018 (Pop)


Статистика роздачі [Оновити пиров]
Розмір:  2,13 GB   |    Зареєстрований:  4 дня   |    Скачано:  0 раз

Повного джерела не було: Ніколи

by Паночка ®
13-Січ-2019 01:25


[DSD][OF] Chlara - evo sessions - 2018 (Pop)

Chlara
evo sessions
Формат записи/Источник записи: [DSD][OF]
Наличие водяных знаков: Нет
Год издания/переиздания диска: 2018
Жанр: Pop
Издатель (лейбл): Evosound
Продолжительность: 00:53:29
Наличие сканов в содержимом раздачи: Только обложка альбома
Треклист:
01 - This Love (4:43)
02 - Ocean Deep (5:17)
03 - Stay With Me (2:52)
04 - True Colours (3:37)
05 - Follow Me (3:06)
06 - Bliss (3:36)
07 - Love Me Tender (4:21)
08 - Wonderwall / Sorry (3:23)
09 - Wild World (4:11)
10 - When I Dream (4:38)
11 - Hotel California (5:58)
12 - Youth (3:29)
13 - Dying Inside (4:17)
Контейнер: DFF (*.dsf)
Тип рипа: tracks
Разрядность: 64(2,8 MHz/1 Bit)
Формат: DSD
Количество каналов: 2.0

Official DR value: DR10

foobar2000 1.4.1 / Dynamic Range Meter 1.1.1log date: 2019-01-11 21:37:16
--------------------------------------------------------------------------------Analyzed: Chlara / evo sessions--------------------------------------------------------------------------------
DR Peak RMS Duration Track--------------------------------------------------------------------------------DR12 -6.78 dB -20.74 dB 4:43 01-This LoveDR9 -6.60 dB -18.44 dB 5:17 02-Ocean DeepDR11 -6.82 dB -20.61 dB 2:52 03-Stay With MeDR9 -6.82 dB -19.38 dB 3:37 04-True ColoursDR9 -6.82 dB -18.45 dB 3:06 05-Follow MeDR10 -7.51 dB -20.58 dB 3:36 06-BlissDR10 -6.74 dB -20.22 dB 4:21 07-Love Me TenderDR11 -6.84 dB -21.23 dB 3:23 08-Wonderwall / SorryDR9 -6.76 dB -19.16 dB 4:11 09-Wild WorldDR11 -6.73 dB -21.33 dB 4:38 10-When I DreamDR9 -6.78 dB -18.24 dB 5:58 11-Hotel CaliforniaDR8 -6.53 dB -17.73 dB 3:29 12-YouthDR10 -6.64 dB -20.41 dB 4:17 13-Dying Inside--------------------------------------------------------------------------------
Number of tracks: 13Official DR value: DR10
Samplerate: 2822400 Hz / PCM Samplerate: 88200 HzChannels: 2Bits per sample: 1Bitrate: 5645 kbpsCodec: DSD64================================================================================

Спектры частот

Об исполнителе

22 year old British-born Filipina singer / songwriter Chlara (born Chlara Isobel Magtultol) labeled as Philippines acoustic songbird, Chlara spent the early years of her life living in England before moving to the Philippines at the age of nine. Her father Cesar who passed away when Chlara was only two years old was a music lover and left with Chlara his love of music.
From the age of three Chlara was already singing and was very much influenced by the music that was constantly played at home, listening to Michael Jackson, Stevie Wonder, Air Supply, The Carpenters, Christina Aguilera, Whitney Houston and Celine Dion.
After moving back to the Philippines, Chlara’s mum Gina enrolled her into a few singing schools, While regularly joining the school singing programs and plays Chlara also began playing the guitar at the age 11, learning from her brother and with her own self study, she would watch & learn from videos on YouTube.
Before starting college Chlara had already started writing her own songs. Growing up all Chlara ever wanted to do was sing and have the world hear her songs and now is fully focused to reach her dreams having signed a long term management and recording agreement with Evolution.
She was featured in evosound’s album Voices of Love together with the finest female vocals featuring Susan Wong, Olivia Ong, Julienne Taylor, Emi Fujita, Stacey Kent, Katie Melua, Chantal Chamberland with her version of Lionel Richie’s Stuck on You.
Chlara has been regularly performing in the Philippines during 2012 and 2013. On May 30th 2013 Chlara made her debut overseas live performance at the Poly Theatre, Beijing, China as special guest to Connie Talbot.
In July 2013 Chlara recorded her debut album of self-written compositions in Manila with Swiss-based producer Adrien Zerbini. The album is scheduled for release in early 2014.
Источник: -



Ви не можете починати теми
Ви не можете відповідати на повідомлення
Ви не можете редагувати свої повідомлення
Ви не можете видаляти свої повідомлення
Ви не можете голосувати в опитуваннях
Ви не можете прикріплювати файли до повідомлень
Ви можете скачувати файли