(Jazz, Experimental, Soundtrack) [CD] Міколай Тшаска - Критичні дні - 2003, FLAC (tracks), lossless


Статистика роздачі [Оновити пиров]
Розмір:  299 MB   |    Зареєстрований:  8 днів   |    Скачано:  0 раз

Повного джерела не було: Ніколи


(Jazz, Experimental, Soundtrack) [CD] Міколай Тшаска - Критичні дні - 2003, FLAC (tracks), lossless

Міколай Тшаска - Критичні дні
(музика до вистави театру-студії Арабески)
Жанр: Jazz , Experimental , Soundtrack
Носитель: CD
Страна-производитель диска (релиза): EU
Год издания: 2003
Издатель (лейбл): Атлантік
Страна исполнителя (группы): Польша, Украина, Россия
Аудиокодек: FLAC (*.flac)
Тип рипа: tracks
Битрейт аудио: lossless
Продолжительность: 00:55:23
Источник (релизер): Спам
Наличие сканов в содержимом раздачи: нет
Треклист:
01. Елоїза (чекає) (02:05) 
02. Дві жінки, які давно не бачились (03:56) 
03. Провінційні панночки у великому місті (02:34) 
04. П’яний вальсик (02:21) 
05. Гардероб (13:30) 
06. Косметичний салон (04:28) 
07. Дівчата і хлопці (яких забирають на війну) (02:12) 
08. Лялька і прибирання (02:35) 
09. Дівчата, які чекають на хлопців (02:08) 
10. Кінотеатр (08:31) 
11. Фатальна п’янка (02:18) 
12. Моя мила (зґвалтування) (04:20) 
13. Реклама (фільм) (02:06) 
14. Елоїза (фінал) (02:19)
Виконавці
Міколай Тшаска – саксофон, композитор 
Михайло Барбара – тексти, вокал 
Галина Бреславець – вокал 
Наталя Цимбал – голос 
Ахмед Азізов – голос 
Аббас Зульфугаров – контрабас 
Сергій Кондратьєв – гітара 
Пьотр Павляк – гітара 
Ольо Валіцкі – бас 
Томаш Гвінцінскі – перкусія 

Лог создания рипа

Exact Audio Copy V0.99 prebeta 5 from 4. May 2009
EAC extraction logfile from 20. October 2010, 3:37
Міколай Тшаска / Критичні дні
Used drive : TEAC CD-W540E Adapter: 1 ID: 0
Read mode : SecureUtilize accurate stream : YesDefeat audio cache : YesMake use of C2 pointers : No
Read offset correction : 686Overread into Lead-In and Lead-Out : NoFill up missing offset samples with silence : YesDelete leading and trailing silent blocks : NoNull samples used in CRC calculations : YesUsed interface : Installed external ASPI interfaceGap handling : Not detected, thus appended to previous track
Used output format : Internal WAV RoutinesSample format : 44.100 Hz; 16 Bit; Stereo
TOC of the extracted CD
Track | Start | Length | Start sector | End sector --------------------------------------------------------- 1 | 0:00.00 | 2:05.24 | 0 | 9398 2 | 2:05.24 | 3:55.53 | 9399 | 27076 3 | 6:01.02 | 2:34.37 | 27077 | 38663 4 | 8:35.39 | 2:21.22 | 38664 | 49260 5 | 10:56.61 | 13:29.46 | 49261 | 109981 6 | 24:26.32 | 4:28.23 | 109982 | 130104 7 | 28:54.55 | 2:11.44 | 130105 | 139973 8 | 31:06.24 | 2:35.16 | 139974 | 151614 9 | 33:41.40 | 2:08.00 | 151615 | 161214 10 | 35:49.40 | 8:31.25 | 161215 | 199564 11 | 44:20.65 | 2:17.51 | 199565 | 209890 12 | 46:38.41 | 4:19.41 | 209891 | 229356 13 | 50:58.07 | 2:06.00 | 229357 | 238806 14 | 53:04.07 | 2:19.18 | 238807 | 249249
Track 1
Filename G:\Міколай Тшаска - Критичні дні (музика до вистави театру-студії Арабески) [2003] FLAC\Track01.wav
Peak level 88.6 % Track quality 100.0 % Test CRC D37ACEB6 Copy CRC D37ACEB6 Track not present in AccurateRip database Copy OK
Track 2
Filename G:\Міколай Тшаска - Критичні дні (музика до вистави театру-студії Арабески) [2003] FLAC\Track02.wav
Peak level 97.0 % Track quality 100.0 % Test CRC 814E8194 Copy CRC 814E8194 Track not present in AccurateRip database Copy OK
Track 3
Filename G:\Міколай Тшаска - Критичні дні (музика до вистави театру-студії Арабески) [2003] FLAC\Track03.wav
Peak level 73.5 % Track quality 100.0 % Test CRC 58818864 Copy CRC 58818864 Track not present in AccurateRip database Copy OK
Track 4
Filename G:\Міколай Тшаска - Критичні дні (музика до вистави театру-студії Арабески) [2003] FLAC\Track04.wav
Peak level 47.0 % Track quality 100.0 % Test CRC 03088670 Copy CRC 03088670 Track not present in AccurateRip database Copy OK
Track 5
Filename G:\Міколай Тшаска - Критичні дні (музика до вистави театру-студії Арабески) [2003] FLAC\Track05.wav
Peak level 98.8 % Track quality 100.0 % Test CRC 21DE4DAF Copy CRC 21DE4DAF Track not present in AccurateRip database Copy OK
Track 6
Filename G:\Міколай Тшаска - Критичні дні (музика до вистави театру-студії Арабески) [2003] FLAC\Track06.wav
Peak level 100.0 % Track quality 99.9 % Test CRC 740EE53F Copy CRC 740EE53F Track not present in AccurateRip database Copy OK
Track 7
Filename G:\Міколай Тшаска - Критичні дні (музика до вистави театру-студії Арабески) [2003] FLAC\Track07.wav
Peak level 64.7 % Track quality 100.0 % Test CRC E0BAC7C4 Copy CRC E0BAC7C4 Track not present in AccurateRip database Copy OK
Track 8
Filename G:\Міколай Тшаска - Критичні дні (музика до вистави театру-студії Арабески) [2003] FLAC\Track08.wav
Peak level 96.4 % Track quality 100.0 % Test CRC F1D41DF4 Copy CRC F1D41DF4 Track not present in AccurateRip database Copy OK
Track 9
Filename G:\Міколай Тшаска - Критичні дні (музика до вистави театру-студії Арабески) [2003] FLAC\Track09.wav
Peak level 100.0 % Track quality 100.0 % Test CRC 03689A8B Copy CRC 03689A8B Track not present in AccurateRip database Copy OK
Track 10
Filename G:\Міколай Тшаска - Критичні дні (музика до вистави театру-студії Арабески) [2003] FLAC\Track10.wav
Peak level 90.3 % Track quality 100.0 % Test CRC C2E6CD84 Copy CRC C2E6CD84 Track not present in AccurateRip database Copy OK
Track 11
Filename G:\Міколай Тшаска - Критичні дні (музика до вистави театру-студії Арабески) [2003] FLAC\Track11.wav
Peak level 83.7 % Track quality 100.0 % Test CRC 762E4D22 Copy CRC 762E4D22 Track not present in AccurateRip database Copy OK
Track 12
Filename G:\Міколай Тшаска - Критичні дні (музика до вистави театру-студії Арабески) [2003] FLAC\Track12.wav
Peak level 80.8 % Track quality 100.0 % Test CRC 5716E275 Copy CRC 5716E275 Track not present in AccurateRip database Copy OK
Track 13
Filename G:\Міколай Тшаска - Критичні дні (музика до вистави театру-студії Арабески) [2003] FLAC\Track13.wav
Peak level 92.4 % Track quality 100.0 % Test CRC 15405010 Copy CRC 15405010 Track not present in AccurateRip database Copy OK
Track 14
Filename G:\Міколай Тшаска - Критичні дні (музика до вистави театру-студії Арабески) [2003] FLAC\Track14.wav
Peak level 71.1 % Track quality 100.0 % Test CRC 01962CC1 Copy CRC 01962CC1 Track not present in AccurateRip database Copy OK
None of the tracks are present in the AccurateRip database
No errors occurred
End of status report



Ви не можете починати теми
Ви не можете відповідати на повідомлення
Ви не можете редагувати свої повідомлення
Ви не можете видаляти свої повідомлення
Ви не можете голосувати в опитуваннях
Ви не можете прикріплювати файли до повідомлень
Ви можете скачувати файли