(Classical/Classical in Blue) Джордж Гершвин - Лучшие Произведения Тысячелетия Воденичаров, Евров, Владигеров - 2008, FLAC (image+.cue) lossless


Статистика роздачі [Оновити пиров]
Розмір:  366 MB   |    Зареєстрований:  8 днів   |    Скачано:  0 раз

Повного джерела не було: Ніколи

by Паночка ®
08-Січ-2019 18:45


(Classical/Classical in Blue) Джордж Гершвин - Лучшие Произведения Тысячелетия Воденичаров, Евров, Владигеров - 2008, FLAC (image+.cue) lossless

Джордж Гершвин - Лучшие Произведения Тысячелетия Воденичаров, Евров, Владигеров
Жанр: Classical/Classical in Blue
Страна-производитель диска: Украина
Год издания диска: 2008
Издатель (лейбл): GOLDEN MUSIC
Номер по каталогу: None
Дата записи: 2008
Аудиокодек: FLAC
Тип рипа: image+.cue
Битрейт аудио: lossless
Продолжительность: 01:16:28
Источник: собственный рип
Наличие сканов в содержимом раздачи: да
Треклист:
1. Расподия в блюзовых тонах
2. № 1 си бемоль мажор
3. № 2 до диез минор
4. № 3 ми бемоль минор
5. Кубинская увертюра
6. Интродукция
7. Летний день
8. I Allegro
9. II Adagio
10. III Allegro agitato
Исполнители:
1, 8-10 Б. Воденичаров
2-4 Н. Евров
5-7 Симфонический оркестр Болгарского радио, дир. А. Владигеров

Лог создания рипа

Exact Audio Copy V1.3 from 2. September 2016
EAC extraction logfile from 25. December 2018, 12:52
George Gerswhin / The best of George Gerswhin
Used drive : hp DVD RW AD-7760H Adapter: 1 ID: 0
Read mode : SecureUtilize accurate stream : YesDefeat audio cache : YesMake use of C2 pointers : No
Read offset correction : 48Overread into Lead-In and Lead-Out : NoFill up missing offset samples with silence : YesDelete leading and trailing silent blocks : NoNull samples used in CRC calculations : YesUsed interface : Native Win32 interface for Win NT & 2000
Used output format : User Defined EncoderSelected bitrate : 1024 kBit/sQuality : HighAdd ID3 tag : NoCommand line compressor : C:\Program Files (x86)\Exact Audio Copy\Flac\flac.exeAdditional command line options : -V -8 -T "Date=%year%" -T "Genre=%genre%" %source%
TOC of the extracted CD
Track | Start | Length | Start sector | End sector --------------------------------------------------------- 1 | 0:00.00 | 18:12.20 | 0 | 81919 2 | 18:12.20 | 1:34.20 | 81920 | 88989 3 | 19:46.40 | 4:11.62 | 88990 | 107876 4 | 23:58.27 | 1:10.73 | 107877 | 113199 5 | 25:09.25 | 10:54.07 | 113200 | 162256 6 | 36:03.32 | 2:59.48 | 162257 | 175729 7 | 39:03.05 | 3:07.52 | 175730 | 189806 8 | 42:10.57 | 13:55.63 | 189807 | 252494 9 | 56:06.45 | 13:26.40 | 252495 | 312984 10 | 69:33.10 | 6:54.65 | 312985 | 344099
Range status and errors
Selected range
Filename C:\Users\user\Desktop\George Gerswhin - The best of George Gerswhin.wav
Peak level 90.3 % Extraction speed 2.2 X Range quality 100.0 %

Содержание индексной карты (.CUE)

REM GENRE ClassicalREM DATE 2008REM DISCID 8011EC0AREM COMMENT ExactAudioCopy v1.3PERFORMER "George Gerswhin"TITLE "The best of George Gerswhin"FILE "George Gerswhin - The best of George Gerswhin.flac" WAVE  TRACK 01 AUDIO    TITLE "Rhapsody in Blue"    FLAGS DCP    INDEX 01 00:00:00  TRACK 02 AUDIO    TITLE "Three Preludes for piano: no 1 in Bflat major"    FLAGS DCP    INDEX 01 18:12:20  TRACK 03 AUDIO    TITLE "Three Preludes for piano: no 2 in c sharp minor"    FLAGS DCP    INDEX 01 19:46:40  TRACK 04 AUDIO    TITLE "Three Preludes for piano: no 3 in e flat minor"    FLAGS DCP    INDEX 01 23:58:27  TRACK 05 AUDIO    TITLE "Cuban Overture"    FLAGS DCP    INDEX 01 25:09:25  TRACK 06 AUDIO    TITLE "from Porgy and Bess: Introduction"    FLAGS DCP    INDEX 01 36:03:32  TRACK 07 AUDIO    TITLE "from Porgy and Bess: Summertime"    FLAGS DCP    INDEX 01 39:03:05  TRACK 08 AUDIO    TITLE "Piano Concerto in F major: I Allegro"    FLAGS DCP    INDEX 01 42:10:57  TRACK 09 AUDIO    TITLE "Piano Concerto in F major: II Adagio"    FLAGS DCP    INDEX 01 56:06:45  TRACK 10 AUDIO    TITLE "Piano Concerto in F major: III Allegro agiato"    FLAGS DCP    INDEX 01 69:33:10

Лог проверки качества

-----------------------
DON'T MODIFY THIS FILE
-----------------------
PERFORMER: auCDtect Task Manager, ver. 1.6.0 RC1 build 1.6.0.1Copyright (c) 2008-2010 y-soft. All rights reservedhttp://y-soft.org
ANALYZER: auCDtect: CD records authenticity detector, version 0.8.2Copyright (c) 2004 Oleg Berngardt. All rights reserved.Copyright (c) 2004 Alexander Djourik. All rights reserved.
FILE: George Gerswhin - The best of George Gerswhin.wav Size: 809323244 Hash: 707F1D000BC1F7788E399AA3CC17041D Accuracy: -m0 Conclusion: ??? Signature: 65125126B71C1D464C50E5650C9E9A22B18E0AA3

DR16

foobar2000 1.4 / Dynamic Range Meter 1.1.1
log date: 2019-01-01 18:14:27
--------------------------------------------------------------------------------
Statistics for: ?-George Gerswhin - The best of George Gerswhin
Number of samples: 202330800
Duration: 1:16:28
--------------------------------------------------------------------------------
Left Right
Peak Value: -1.39 dB --- -0.89 dB
Avg RMS: -23.04 dB --- -23.07 dB
DR channel: 15.93 dB --- 16.51 dB
--------------------------------------------------------------------------------
Official DR Value: DR16
Samplerate: 44100 Hz
Channels: 2
Bits per sample: 16
Bitrate: 634 kbps
Codec: FLAC
================================================================================

Скриншот спектра частот и АЧХ, проверки качества


1.
10.



Ви не можете починати теми
Ви не можете відповідати на повідомлення
Ви не можете редагувати свої повідомлення
Ви не можете видаляти свої повідомлення
Ви не можете голосувати в опитуваннях
Ви не можете прикріплювати файли до повідомлень
Ви можете скачувати файли