Странное Рождество (2006) DVDRip-AVC | Лицензия


Статистика роздачі [Оновити пиров]
Розмір:  3,04 GB   |    Зареєстрований:  1 місяць 5 днів   |    Скачано:  0 раз

Повного джерела не було: Ніколи

by Паночка ®
12-Грд-2018 14:05


Странное Рождество (2006) DVDRip-AVC | Лицензия

Информация о фильме
Название: Странное Рождество
Год выхода: 2006
Жанр: комедия
Режиссер: Максим Паперник
В ролях: Барбара Брыльска, Лия Ахеджакова, Владимир Горянский, Игорь Письменный, Богдан Ступка, Ольга Сумская, Инна Беликова, Андрей Саминин, Константин Костышин…
О фильме: Вот уже несколько лет в Столице нет снега на Рождество, и успели вырасти дети, которые спрашивают: «Почему рождественский снег падает только в кино?» Но в этом году все должно быть иначе. Вдова алкогольного магната Ольга Самойлова публично пообещала: если снег не выпадет вновь, она засыплет Город искусственным на собственные средства. Ольга Николаевна поставила целью своей жизни осуществлять чужие заветные мечты и организовала «Фонд счастья» памяти своего мужа-миллионера.
Увы, трое ее приемных детей — депутат Георгий, прокурор Петр и светская львица Лилия — не собираются транжирить «свои деньги» на прихоти своей мачехи. Они отправляют ее подальше с глаз, а сами начинают поиски ценных бумаг. Причем каждый из наследников уверен, что именно он обладает точными сведениями о заветном тайнике. Мол, он самый любимый ребенок и только ему мама сказала правду. И тут начинаются приключения наших героев. Пока Ольга Николаевна безмятежно празднует Рождество в «Тихой обители», Петр разбирает старый дымоход на даче, Лиля вспарывает чучело мамонта в зоологическом музее, Георгий вскапывает клумбу в оранжерее президента…


Страна: Украина / Star Media
Продолжительность: 02:23:02
Перевод: не требуется (русский) [Лицензия]
Файл
Качество: DVDRip-AVC
Формат: MKV
Видео: MPEG-4 AVC/H.264, 2600 Кбит/сек, 1024:576
Звук: AC3, 6 ch, 448 Кбит/сек
Субтитры: нет
Дополнительно: Сохранены оригинальные главы (чаптеры)

MediaInfo:

Общее
Уникальный идентификатор : 319657655414102048515929337375209532589 (0xF07BD336929D936AEDFD690FD007ACAD)
Полное имя : F:Диск2. ФИЛЬМЫ СНГСтранное Рождество 2006Strannoe rozhdestvo (2006) DVDRip-AVC.mkv
Формат : Matroska
Версия формата : Version 4
Размер файла : 3,04 Гбайт
Продолжительность : 2 ч. 23 м.
Общий поток : 3042 Кбит/сек
Программа кодирования : XviD4PSP 7.0.461 DAILY
Библиотека кодирования : Lavf57.71.100
Авторское право : [#ZsU®]
ErrorDetectionType : Per level 1
Attachments : poster.png
ENCODING_INFO : DVD > MKV Пользовательский / MPEG2 > X264 ABR 2600kbps HQ / AC3 > AC3 CBR 448kbps
Язык : und
Видео
Идентификатор : 1
Формат : AVC
Формат/Информация : Advanced Video Codec
Профиль формата : High@L4.1
Настройки формата : CABAC / 10 Ref Frames
Параметр CABAC формата : Да
Параметр RefFrames формата : 10 кадров
Идентификатор кодека : V_MPEG4/ISO/AVC
Продолжительность : 2 ч. 23 м.
Битрейт : 2600 Кбит/сек
Ширина : 1024 пикселя
Высота : 576 пикселей
Соотношение сторон : 5:3
Режим частоты кадров : Постоянный
Частота кадров : 25,000 кадров/сек
Цветовое пространство : YUV
Субдискретизация насыщенности : 4:2:0
Битовая глубина : 8 бит
Тип развёртки : Прогрессивная
Бит/(Пиксели*Кадры) : 0.176
Размер потока : 2,53 Гбайт (83%)
Библиотека кодирования : x264 core 157 r2935M 545de2f
Настройки программы : cabac=1 / ref=11 / deblock=1:-3:-3 / analyse=0x3:0x133 / me=umh / subme=11 / psy=1 / psy_rd=1.00:0.20 / mixed_ref=1 / me_range=32 / chroma_me=1 / trellis=2 / 8x8dct=1 / cqm=0 / deadzone=21,11 / fast_pskip=1 / chroma_qp_offset=-3 / threads=12 / lookahead_threads=1 / sliced_threads=0 / nr=0 / decimate=1 / interlaced=0 / bluray_compat=0 / constrained_intra=0 / bframes=11 / b_pyramid=1 / b_adapt=1 / b_bias=11 / direct=1 / weightb=1 / open_gop=0 / weightp=1 / keyint=250 / keyint_min=25 / scenecut=40 / intra_refresh=0 / rc_lookahead=40 / rc=abr / mbtree=1 / bitrate=2600 / ratetol=1.0 / qcomp=0.60 / qpmin=0 / qpmax=69 / qpstep=4 / ip_ratio=1.40 / aq=1:1.00
Default : Да
Forced : Нет
Цветовой диапазон : Limited
Основные цвета : BT.709
Характеристики трансфера : BT.709
Коэффициенты матрицы : BT.709
Аудио
Идентификатор : 2
Формат : AC-3
Формат/Информация : Audio Coding 3
Коммерческое название : Dolby Digital
Идентификатор кодека : A_AC3
Продолжительность : 2 ч. 23 м.
Вид битрейта : Постоянный
Битрейт : 448 Кбит/сек
Каналы : 6 каналов
Channel layout : L R C LFE Ls Rs
Частота : 48,0 КГц
Частота кадров : 31,250 кадров/сек (1536 SPF)
Битовая глубина : 16 бит
Метод сжатия : С потерями
Размер потока : 458 Мбайт (15%)
Язык : Russian
Default : Да
Forced : Нет
Меню
00:00:00.000 : :Глава 1
00:05:41.400 : :Глава 2
00:17:00.000 : :Глава 3
00:28:20.400 : :Глава 4
00:36:00.000 : :Глава 5
00:43:54.000 : :Глава 6
00:52:47.400 : :Глава 7
01:00:00.000 : :Глава 8
01:10:06.279 : :Глава 9
01:24:31.480 : :Глава 10
01:34:25.480 : :Глава 11
01:45:28.480 : :Глава 12
01:52:32.080 : :Глава 13
01:58:54.280 : :Глава 14
02:08:42.280 : :Глава 15
02:15:03.280 : :Глава 16

Скриншоты

СЕМПЛ



Ви не можете починати теми
Ви не можете відповідати на повідомлення
Ви не можете редагувати свої повідомлення
Ви не можете видаляти свої повідомлення
Ви не можете голосувати в опитуваннях
Ви не можете прикріплювати файли до повідомлень
Ви можете скачувати файли