[TR24][OF] Vladyslav Sendecki & Atom String Quartet - Le Jardin Oublie / My Polish Heart - 2018 (Contemporary Jazz, Classical Crossover)


Статистика роздачі [Оновити пиров]
Розмір:  1,22 GB   |    Зареєстрований:  4 дня   |    Скачано:  0 раз

Повного джерела не було: Ніколи

by Паночка ®
06-Грд-2018 11:50


[TR24][OF] Vladyslav Sendecki & Atom String Quartet - Le Jardin Oublie / My Polish Heart - 2018 (Contemporary Jazz, Classical Crossover)

LE JARDIN OUBLIÉ / MY POLISH HEART
VLADYSLAV ' SENDECKI
ATOM STRING QUARTET

Жанр: Contemporary Jazz, Classical Crossover
Год издания: 2018
Издатель (лейбл): Neuklang
Номер по каталогу: NCD4198
Страна исполнителя: Poland
Аудиокодек: FLAC (*.flac)
Разрядность: 24 bits / 96 kHz
Количество каналов: 2
Тип рипа: tracks
Продолжительность: 68:07
Источник (релизер): WEB
Наличие сканов: front
1. Picture of the Past
2. Lullaby for a Handful Kids
3. Payed View on Tatra
4. Little Waltz Wunderlich
5. My Polish Heart (Movement 6 -14)
6. Back Where I Belong
7. Komeda Hommage ("After Catastrophy", Ballet Etude Nr. 3)
8. A Man of a Big Heart
9. Taniec Magurski
10. Elegy

Лог проверки качества

foobar2000 1.3.12 / Замер динамического диапазона (DR) 1.1.1Дата отчёта:  2018-12-06 08:18:31
--------------------------------------------------------------------------------Анализ: Vladyslav Sendecki & Atom String Quartet / Le Jardin Oublie / My Polish Heart--------------------------------------------------------------------------------
DR Пики RMS Продолжительность трека--------------------------------------------------------------------------------DR12 -1.34 дБ -19.63 дБ 6:20 01-Picture of the PastDR13 -4.06 дБ -20.91 дБ 5:30 02-Lullaby for a Handful KidsDR13 -0.67 дБ -17.99 дБ 6:25 03-Payed View on TatraDR12 -5.43 дБ -21.07 дБ 4:49 04-Little Waltz WunderlichDR12 -0.93 дБ -17.41 дБ 19:51 05-My Polish HeartDR11 -3.35 дБ -20.20 дБ 3:35 06-Back Where I BelongDR14 -2.66 дБ -21.28 дБ 11:17 07-Komeda HommageDR10 -7.82 дБ -21.52 дБ 2:02 08-A Man of a Big HeartDR12 -1.16 дБ -16.88 дБ 5:19 09-Taniec MagurskiDR12 -5.58 дБ -22.44 дБ 3:00 10-Elegy--------------------------------------------------------------------------------
Количество треков: 10Реальные значения DR: DR12
Частота: 96000 ГцКаналов: 2Разрядность: 24Битрейт: 2396 кбит/сКодек: FLAC================================================================================

Состав


Vladyslav Sendecki * piano
Atom String Quartet:
Dawid Lubowicz * violin
Mateusz Smoczynski * violin
Michał Zaborski * viola
Krzysztof Lenczowski * cello



Ви не можете починати теми
Ви не можете відповідати на повідомлення
Ви не можете редагувати свої повідомлення
Ви не можете видаляти свої повідомлення
Ви не можете голосувати в опитуваннях
Ви не можете прикріплювати файли до повідомлень
Ви можете скачувати файли