Владимир Машков. Один по лезвию ножа (2018) HDTVRip от torrents.org.ua


Статистика роздачі [Оновити пиров]
Розмір:  550 MB   |    Зареєстрований:  10 днів   |    Скачано:  0 раз

Повного джерела не було: Ніколи


Владимир Машков. Один по лезвию ножа (2018) HDTVRip от torrents.org.ua

Оригинальное название: Владимир Машков. Один по лезвию ножа
Год выпуска: 2018
Жанр: Документальный, биография
Выпущено: Россия, Первый канал, Студия Сергея Медведева
Режиссер: Ирина Голубева
В ролях: Владимир Машков, Евгений Миронов, Марина Зудина, Алексей Учитель, Денис Евстигнеев, Кристина Орбакайте, Игорь Золотовицкий, Карен Шахназаров, Юлия Пересильд, Ингеборга Дапкунайте, Авангард Леонтьев, Светлана Крючкова, Ольга Красько, Денис Никифоров
О фильме: Владимир Машков снимается в кино более двадцати пяти лет, и всегда — только в главных ролях. Само его участие в картине — уже знак качества и залог будущего успеха. Еще бы, Машков — один из самых любимых российских актеров, мачо и секс-символ нашего кино. Машков избегает журналистов. Но съёмочной группе удалось невозможное — впервые о себе, своей семье, актерской судьбе и профессии — он расскажет сам…
Качество: HDTVRip
Видео: XviD, 1475 Кбит/с, 720x400, 25 кадр/с
Аудио: АС3, 2 ch, 192 Кбит/с
Продолжительность: 00:45:55
Язык: Русский

Скриншоты


MediaInfo

General
Complete name : C:Новая папкаVladimir.Mashkov.Odin.po.lezviyu.nozha.XviD.2018.HDTVRip.Generalfilm.avi
Format : AVI
Format/Info : Audio Video Interleave
File size : 550 MiB
Duration : 45mn 55s
Overall bit rate : 1 675 Kbps
Movie name : Vladimir.Mashkov.Odin.po.lezviyu.nozha.XviD.2018.HDTVRip.Generalfilm
Director : Brux
Video
ID : 0
Format : MPEG-4 Visual
Format profile : Advanced Simple@L5
Format settings, BVOP : 2
Format settings, QPel : No
Format settings, GMC : No warppoints
Format settings, Matrix : Custom
Codec ID : XVID
Codec ID/Hint : XviD
Duration : 45mn 55s
Bit rate : 1 475 Kbps
Width : 720 pixels
Height : 400 pixels
Display aspect ratio : 16:9
Frame rate : 25.000 fps
Color space : YUV
Chroma subsampling : 4:2:0
Bit depth : 8 bits
Scan type : Progressive
Compression mode : Lossy
Bits/(Pixel*Frame) : 0.205
Stream size : 485 MiB (88%)
Writing library : XviD 65
Audio
ID : 1
Format : AC-3
Format/Info : Audio Coding 3
Mode extension : CM (complete main)
Format settings, Endianness : Big
Codec ID : 2000
Duration : 45mn 55s
Bit rate mode : Constant
Bit rate : 192 Kbps
Channel(s) : 2 channels
Channel positions : Front: L R
Sampling rate : 48.0 KHz
Bit depth : 16 bits
Compression mode : Lossy
Stream size : 63.1 MiB (11%)
Alignment : Aligned on interleaves
Interleave, duration : 64 ms (1.60 video frames)
Interleave, preload duration : 192 ms
Title : Владимир Машков. Один по лезвию ножа
Релиз от:



Ви не можете починати теми
Ви не можете відповідати на повідомлення
Ви не можете редагувати свої повідомлення
Ви не можете видаляти свої повідомлення
Ви не можете голосувати в опитуваннях
Ви не можете прикріплювати файли до повідомлень
Ви можете скачувати файли